.
Авторизация | Регистрация
Хочешь лучшие торренты? Добавь свой email!
Добавить
» » Суд - это я / I, the Jury (1982) DVDRip от NovaLan скачать через торрент бесплатно




    Суд - это я / I, the Jury (1982) DVDRip от NovaLan скачать через торрент бесплатно

    Опубликовал: Админ | Дата: 27-02-2015, 11:10 | Просмотров: 329





    Снималось в: США
    Создали в: American Cinema Productions, Larco Productions Inc., Pellepont
    Категория жанра: Триллер
    Создали в: 1982

    Время просмотра: 01:46:02


    Перевод текста: Профессиональный многоголосый, профессиональный одноголосый, авторский

    Оригинальная аудиодорожка: Английская

    Главный режиссер: Ричард Т. Хеффрон


    Актеры: Арманд Ассанте, Барбара Каррера, Лаурен Лэндон, Алан Кинг, Джеффри Льюис, Пол Сорвино, Джадсон Ирни Скотт, Бэрри Снайдер, Джулия Барр, Джесика Джеймс


    Сюжет: Начало 80-х. В одном из злачных нью-йоркских отелей выстрелом в живот убит однорукий следователь по имени Джек Уилльямс. Приехавший на место преступления частный детектив Майк Хаммер узнаёт в убитом своего друга (с которым вместе воевал во время вьетнамской кампании) и клянётся найти как убийцу армейского сослуживца, так и его заказчиков. И Хаммер с безудержной яростью начинает частное расследование, которое его приводит в мир погонь, жестоких убийств на сексуальной почве, медицинского порнобизнеса и шпионо-политических интриг с участием ЦРУ.



    Исходник: DVD9 R2

    Тип релиза: DVDRip

    Контейнер: AVI


    Информация о видео: XviD, 2190 Кбит/с, 720х400
    Информация о звуке: Русский, английский (АС3, 2 ch, 192 Кбит/с), русский (АС3, 1 ch, 96 Кбит/с)

    Семпл


    Перевод

    Аудио#1: Профессиональный многоголосый
    Аудио#2: Авторский (Володарский)
    Аудио#3: Авторский (Михалев)
    Аудио#4: Профессиональный одноголосый
    Аудио#5: Английский



    MediaInfo
    Общее
    Полное имя : D:1АААСуд – это я.avi
    Формат : AVI
    Формат/Информация : Audio Video Interleave
    Профиль формата : OpenDML
    Размер файла : 2,05 Гбайт
    Продолжительность : 1 ч. 46 м.
    Общий поток : 2769 Кбит/сек
    Программа кодирования : VirtualDubMod 1.5.10.2 (build 2540/release)
    Библиотека кодирования : VirtualDubMod build 2540/release

    Видео
    Идентификатор : 0
    Формат : MPEG-4 Visual
    Профиль формата : Advanced Simple@L5
    Параметр BVOP формата : 2
    Параметр QPel формата : Нет
    Параметр GMC формата : Без точки перехода
    Параметр матрицы формата : Default (MPEG)
    Идентификатор кодека : XVID
    Идентификатор кодека/Подсказка : XviD
    Продолжительность : 1 ч. 46 м.
    Битрейт : 2060 Кбит/сек
    Ширина : 720 пикселей
    Высота : 400 пикселей
    Соотношение сторон : 16:9
    Частота кадров : 23,976 кадра/сек
    Цветовое пространство : YUV
    Субдискретизация насыщенности : 4:2:0
    Битовая глубина : 8 бит
    Тип развёртки : Прогрессивная
    Метод сжатия : С потерями
    Бит/(Пиксели*Кадры) : 0.298
    Размер потока : 1,53 Гбайт (74%)
    Библиотека кодирования : XviD 1.2.1 (UTC 2008-12-04)

    Аудио #1
    Идентификатор : 1
    Формат : AC-3
    Формат/Информация : Audio Coding 3
    Расширение режима : CM (complete main)
    Параметр Endianness формата : Big
    Идентификатор кодека : 2000
    Продолжительность : 1 ч. 46 м.
    Вид битрейта : Постоянный
    Битрейт : 192 Кбит/сек
    Каналы : 2 канала
    Расположение каналов : Front: L R
    Частота : 48,0 КГц
    Битовая глубина : 16 бит
    Метод сжатия : С потерями
    Размер потока : 146 Мбайт (7%)
    Выравнивание : Разделение по промежуткам
    Продолжительность промежутка : 42 мс. (1,00 видеокадр)
    Время предзагрузки промежутка : 500 мс.

    Аудио #2
    Идентификатор : 2
    Формат : AC-3
    Формат/Информация : Audio Coding 3
    Расширение режима : CM (complete main)
    Параметр Endianness формата : Big
    Идентификатор кодека : 2000
    Продолжительность : 1 ч. 46 м.
    Вид битрейта : Постоянный
    Битрейт : 96,0 Кбит/сек
    Каналы : 1 канал
    Расположение каналов : Front: C
    Частота : 48,0 КГц
    Битовая глубина : 16 бит
    Метод сжатия : С потерями
    Размер потока : 72,8 Мбайт (3%)
    Выравнивание : Разделение по промежуткам
    Продолжительность промежутка : 42 мс. (1,00 видеокадр)
    Время предзагрузки промежутка : 500 мс.

    Аудио #3
    Идентификатор : 3
    Формат : AC-3
    Формат/Информация : Audio Coding 3
    Расширение режима : CM (complete main)
    Параметр Endianness формата : Big
    Идентификатор кодека : 2000
    Продолжительность : 1 ч. 46 м.
    Вид битрейта : Постоянный
    Битрейт : 96,0 Кбит/сек
    Каналы : 1 канал
    Расположение каналов : Front: C
    Частота : 48,0 КГц
    Битовая глубина : 16 бит
    Метод сжатия : С потерями
    Размер потока : 72,8 Мбайт (3%)
    Выравнивание : Разделение по промежуткам
    Продолжительность промежутка : 42 мс. (1,00 видеокадр)
    Время предзагрузки промежутка : 500 мс.

    Аудио #4
    Идентификатор : 4
    Формат : AC-3
    Формат/Информация : Audio Coding 3
    Расширение режима : CM (complete main)
    Параметр Endianness формата : Big
    Идентификатор кодека : 2000
    Продолжительность : 1 ч. 46 м.
    Вид битрейта : Постоянный
    Битрейт : 96,0 Кбит/сек
    Каналы : 1 канал
    Расположение каналов : Front: C
    Частота : 48,0 КГц
    Битовая глубина : 16 бит
    Метод сжатия : С потерями
    Размер потока : 72,8 Мбайт (3%)
    Выравнивание : Разделение по промежуткам
    Продолжительность промежутка : 42 мс. (1,00 видеокадр)
    Время предзагрузки промежутка : 500 мс.

    Аудио #5
    Идентификатор : 5
    Формат : AC-3
    Формат/Информация : Audio Coding 3
    Расширение режима : CM (complete main)
    Параметр Endianness формата : Big
    Идентификатор кодека : 2000
    Продолжительность : 1 ч. 46 м.
    Вид битрейта : Постоянный
    Битрейт : 192 Кбит/сек
    Каналы : 2 канала
    Расположение каналов : Front: L R
    Частота : 48,0 КГц
    Битовая глубина : 16 бит
    Метод сжатия : С потерями
    Размер потока : 146 Мбайт (7%)
    Выравнивание : Разделение по промежуткам
    Продолжительность промежутка : 42 мс. (1,00 видеокадр)
    Время предзагрузки промежутка : 500 мс.







    Скриншоты для ознакомления




    Релиз группа:

    Автор рипа:
    Залил: YArl
    Размер скачиваемого торрента: 2.05 GB (2202050560 Bytes)

    Суд - это я / I, the Jury (1982) DVDRip от NovaLan скачать через торрент бесплатно
    загрузка...
    Рейтинг →
     (голосов: 1, оценка 3/5, голосовать можно 1 раз )

    Другие торренты по теме:

  • Закон и порядок: Суд присяжных / Law Order: Trial by Jury (2005) HDTVRip | P
  • Право голоса. Наркомания: суд приговорит к лечению (2013) WEBRip
  • Суд присяжных / Trial by Jury (1994) DVDRip
  • Повестка в суд / Summoned (2013) WEB-DL 720p от CINEMANIA | L1
  • Капа Дабо - Последний Суд (2014) MP3 от AGR - Generalfilm скачать через торрент бесплатно
  • Страшный суд (2014) HDTV 1080i от Generalfilm скачать через торрент бесплатно
  • Небесный суд (2012) DVDRip от MediaClub | КПК скачать через торрент бесплатно
  • Без обмана: Ресторан - больница - суд (2014) WEBRip


    • Комментарии (0):

      Информация

      Информация

        Посетители, находящиеся в группе Гости, не могут оставлять комментарии в данной новости.

        ↓ Меню



        ↓ Опрос

        А Вы добавили сайт в закладки?
        Да
        Не


        Top 10 за месяц (Фильмы)