.
Авторизация | Регистрация
» » Кара небесная / Switch (1991) DVDRip от ivandubskoj | D скачать через торрент бесплатно




    Кара небесная / Switch (1991) DVDRip от ivandubskoj | D скачать через торрент бесплатно

    Опубликовал: Админ | Дата: 27-02-2015, 11:10 | Просмотров: 318



    Детально о кино
    Русское название: Кара небесная
    Русское название в мировом прокате: Switch
    Создали в: 1991
    Категория жанра: Фэнтези, комедия, драма, мелодрама, криминал
    Главный режиссёр: Блейк Эдвардс
    Актеры: Эллен Баркин, Джимми Смитс, ДжоБет Уильямс, Лоррейн Бракко, Тони Робертс, Перри Кинг, Брюс Пэйн, Лизетт Энтони, Виктория Махони, Бэзил Хоффман...

    Сюжет фильма:
    Стив Брукс, сердцеед и соблазнитель женщин, отправляясь на очередную вечеринку, не знал, что погибнет от рук своих любимиц и на следующий день превратится в эффектную блондинку. Теперь, чтобы не попасть в Ад, он должен понравиться хотя бы одному человеку… точнее, хотя бы одной женщине.



    Снималось в: США
    Киностудия: Beco Films, Cinema Plus, Home Box Office (HBO)
    Время просмотра: 1:43:09
    Перевод текста: Профессиональный (дублированный) Ленфильм
    Оригинальная аудио-дорожка: Нет

    Файл
    Кодек для видео: XviD
    Качество фильма: DVDRip (Исходник: DVD-5)
    Информация о видео: XviD, 720x304 (2.35:1), 23.976 кадр/с, 1827 Кбит/с
    Информация о звуке: Русский, 48000 Гц, 192 Кбит/с, 2 канала (Стерео) | DUB, Ленфильм
    Субтитры: Нет



    Автор рипа - ivandubskoj

    MediaInfo

    Общее
    Полное имя : Kara.nebesnaya.1991.DUB.DVDRip.avi
    Формат : AVI
    Формат/Информация : Audio Video Interleave
    Размер файла : 1,46 Гбайт
    Продолжительность : 1 ч. 43 м.
    Общий поток : 2027 Кбит/сек
    Название фильма : Кара небесная / Switch (1991) DVDRip
    Жанр : Фэнтези, комедия, драма, мелодрама, криминал
    Дата записи : 14.03.2014
    Программа кодирования : VirtualDubMod 1.5.10.3 (build 2550/release)
    Библиотека кодирования : VirtualDubMod build 2550/release
    Правообладатель : rip by ivandubskoj
    Видео
    Идентификатор : 0
    Формат : MPEG-4 Visual
    Профиль формата : Advanced Simple@L5
    Параметр BVOP формата : 1
    Параметр QPel формата : Нет
    Параметр GMC формата : Без точки перехода
    Параметр матрицы формата : Default (MPEG)
    Идентификатор кодека : XVID
    Идентификатор кодека/Подсказка : XviD
    Продолжительность : 1 ч. 43 м.
    Битрейт : 1827 Кбит/сек
    Ширина : 720 пикселей
    Высота : 304 пикселя
    Соотношение сторон : 2,35:1
    Частота кадров : 23,976 кадра/сек
    Цветовое пространство : YUV
    Субдискретизация насыщенности : 4:2:0
    Битовая глубина : 8 бит
    Тип развёртки : Прогрессивная
    Метод сжатия : С потерями
    Бит/(Пиксели*Кадры) : 0.348
    Размер потока : 1,32 Гбайт (90%)
    Библиотека кодирования : XviD 73
    Аудио
    Идентификатор : 1
    Формат : AC-3
    Формат/Информация : Audio Coding 3
    Расширение режима : CM (complete main)
    Параметр Endianness формата : Big
    Идентификатор кодека : 2000
    Продолжительность : 1 ч. 43 м.
    Вид битрейта : Постоянный
    Битрейт : 192 Кбит/сек
    Каналы : 2 канала
    Расположение каналов : Front: L R
    Частота : 48,0 КГц
    Битовая глубина : 16 бит
    Метод сжатия : С потерями
    Размер потока : 142 Мбайт (9%)
    Выравнивание : Разделение по промежуткам
    Продолжительность промежутка : 64 мс. (1,53 видеокадра)
    Время предзагрузки промежутка : 500 мс.
    Заголовок : Russian (DUB, Ленфильм)
    Скриншот c названием фильма


    Скриншоты для ознакомления



    Залил: ivandubskoj
    Размер скачиваемого торрента: 1.46 GB (1568135168 Bytes)

    Кара небесная / Switch (1991) DVDRip от ivandubskoj | D скачать через торрент бесплатно
    загрузка...
    Рейтинг →
     (голосов: 1, оценка 5/5, голосовать можно 1 раз )

    Другие торренты по теме:

  • Кара небесная / Подмена / Switch (1991) DVDRip | D, P, A скачать через торрент бесплатно
  • Подмена / Кара небесная / Switch (1991) DVD-9 торрент скачать бесплатно
  • Кара небесная / Подмена / Switch (1991) DVDRip-AVC | SATKUR скачать торрент бесплатно


    • Комментарии (0):

      Информация

      Информация

        Посетители, находящиеся в группе Гости, не могут оставлять комментарии в данной новости.

        ↓ Меню



        ↓ Опрос

        А Вы добавили сайт в закладки?
        Да
        Не


        Top 10 за неделю (Фильмы)