.
Авторизация | Регистрация
Хочешь лучшие торренты? Добавь свой email!
Добавить
» » Денежная ловушка / The Money Trap (1965) DVDRip скачать через торрент бесплатно




    Денежная ловушка / The Money Trap (1965) DVDRip скачать через торрент бесплатно

    Опубликовал: Админ | Дата: 27-02-2015, 11:10 | Просмотров: 407

    Детально о кино
    Русское название: Денежная ловушка / The Money Trap
    Создали в: 1965
    Категория жанра: Драма, криминал
    Главный режиссер: Берт Кеннеди
    Актеры: Гленн Форд, Эльке Зоммер, Рита Хэйворт, Джозеф Коттен, Рикардо Монтальбан, Том Риз, Джеймс Митчэм, Арджентина Брунетти, Фред Эсслер, Юджин Иглесиас

    Сюжет фильма:
    Адаптация Уолтером Бернстайном романа Лайонела Уайта. История полицейского, ставшего вором. Малооплачиваемый полицейский сыщик Джо (Гленн Форд) соблазняется богатым преступником и начинает брать на лапу. Почти весь интерес в этой области откинут в сторону чужестранной, невероятной сюжетной линией. Джо и его жена Лайза живут в дорогом доме, что возможно благодаря завещанию и акциям ее отца. Когда последние сгорают, начинаются тяжелые времена. У жены появляется идея сэкономить - уволить слуг. Хорас Ван Тильден (Джозеф Коттен), медик, который предположительно работает на преступный синдикат. Когда он убивает наркомана-соучастника и пишет в докладе, что это была самооборона во время ограбления, Джо пережевывает идею о воровстве, скрывает понятое от Пита (своего партнера, который позже все узнает и хочет в долю).




    Тех. данные


    Время просмотра: 01:32:28
    Перевод текста: Авторский (Ребята собрались и перевели фильм)

    Файл
    Тип видео: AVI
    Качество фильма: DVDRip
    Информация о видео: XviD, 1714 Кбит/с, 720x304
    Информация о звуке 1: Русский, английский (АС3, 2 ch, 192 Кбит/с)
    Информация о звуке 2: Р48 kHz, AC3 Dolby Digital, 2/0 (L,R) ch, ~192 kbps (оригинальная английская звуковая дорожка)
    MI:
    General
    Complete name : ... The Money Trap 1965The Money Trap 1965.avi
    Format : AVI
    Format/Info : Audio Video Interleave
    File size : 1.36 GiB
    Duration : 1h 32mn
    Overall bit rate : 2 113 Kbps
    Writing application : VirtualDubMod 1.5.10.3 | www.virtualdub-fr.org || (build 2550/release)
    Writing library : VirtualDubMod build 2550/release

    Video
    ID : 0
    Format : MPEG-4 Visual
    Format profile : Advanced Simple@L5
    Format settings, BVOP : 2
    Format settings, QPel : No
    Format settings, GMC : No warppoints
    Format settings, Matrix : Default (H.263)
    Codec ID : DX50
    Codec ID/Hint : DivX 5
    Duration : 1h 32mn
    Bit rate : 1 715 Kbps
    Width : 720 pixels
    Height : 304 pixels
    Display aspect ratio : 2.35:1
    Frame rate : 23.976 fps
    Color space : YUV
    Chroma subsampling : 4:2:0
    Bit depth : 8 bits
    Scan type : Progressive
    Compression mode : Lossy
    Bits/(Pixel*Frame) : 0.327
    Stream size : 1.11 GiB (81%)
    Writing library : XviD 65

    Audio #1
    ID : 1
    Format : AC-3
    Format/Info : Audio Coding 3
    Mode extension : CM (complete main)
    Format settings, Endianness : Big
    Codec ID : 2000
    Duration : 1h 32mn
    Bit rate mode : Constant
    Bit rate : 192 Kbps
    Channel(s) : 2 channels
    Channel positions : Front: L R
    Sampling rate : 48.0 KHz
    Bit depth : 16 bits
    Compression mode : Lossy
    Stream size : 127 MiB (9%)
    Alignment : Split accross interleaves
    Interleave, duration : 42 ms (1.00 video frame)
    Interleave, preload duration : 500 ms

    Audio #2
    ID : 2
    Format : AC-3
    Format/Info : Audio Coding 3
    Mode extension : CM (complete main)
    Format settings, Endianness : Big
    Codec ID : 2000
    Duration : 1h 32mn
    Bit rate mode : Constant
    Bit rate : 192 Kbps
    Channel(s) : 2 channels
    Channel positions : Front: L R
    Sampling rate : 48.0 KHz
    Bit depth : 16 bits
    Compression mode : Lossy
    Stream size : 127 MiB (9%)
    Alignment : Split accross interleaves
    Interleave, duration : 42 ms (1.00 video frame)
    Interleave, preload duration : 500 ms
    Благодарности:
    Спасибо 6801-6519!
    Перевод: авторский - Юрий Медведев.
    БОЛЬШОЕ СПАСИБО:
    За исходный DVD - surzhoks
    Перевод и озвучивание фильма - Юрий Медведев
    Работа со звуком - ghoulie
    А также огромное спасибо всем, принявшим участие в организации озвучки к этому фильму:
    jasenka, lafajet, елена 22, Ivanov, Магда, Бурый Иван, surzhoks, Ugo927, Arias, eagle64, atomic dragonfly, keg38.
    Скриншоты для ознакомления




    Размер скачиваемого торрента: 1.36 GB (1465602048 Bytes)

    Денежная ловушка / The Money Trap (1965) DVDRip скачать через торрент бесплатно
    загрузка...
    Рейтинг →
     (голосов: 1, оценка 4/5, голосовать можно 1 раз )

    Другие торренты по теме:



      Комментарии (0):

      Информация

      Информация

        Посетители, находящиеся в группе Гости, не могут оставлять комментарии в данной новости.

        ↓ Меню



        ↓ Опрос

        А Вы добавили сайт в закладки?
        Да
        Не


        Top 10 за месяц (Фильмы)