.
Авторизация | Регистрация
» » Орудия смерти: Город костей / The Mortal Instruments: City of Bones (2013) BDRip 720p | Лицензия | US-Transfer скачать через торрент бесплатно




    Орудия смерти: Город костей / The Mortal Instruments: City of Bones (2013) BDRip 720p | Лицензия | US-Transfer скачать через торрент бесплатно

    Опубликовал: Админ | Дата: 27-02-2015, 11:10 | Просмотров: 254



    Детально о кино
    Русское название: Орудия смерти: Город костей
    Русское название в мировом прокате: The Mortal Instruments: City of Bones
    Создали в: 2013
    Категория жанра: Фэнтези, боевик, драма, мелодрама, детектив, приключения
    Снималось в: США, Германия, Constantin Film Produktion, Sony Pictures Entertainment (SPE), Unique Features
    Главный режиссер: Харольд Цварт
    Актеры: Джейми Кэмпбелл Бауэр, Лили Коллинз, Лина Хиди, Эйдан Тёрнер, Джонатан Рис-Майерс, Роберт Шиэн, Джемайма Уэст, Кевин Зегерс, Джаред Харрис, Кевин Дюран, Си Си Эйч Паундер, Гарри Ван Горкум, Стивен Р. Харт, Годфри Гао, Чад Коннелл

    Сюжет фильма: Клэри Фрэй всегда считала себя самой обыкновенной девушкой, пока не выяснилось, что она — потомок древнего рода Сумеречных Охотников, тайной касты воинов-полуангелов, защищающих наш мир от демонов. Когда мама Клэри исчезает, девушка объединяется с Сумеречными охотниками, чтобы спасти ее. Так начинается ее опасное знакомство с иной реальностью, в которой существуют демоны, маги, вампиры, оборотни и другие смертоносные существа.



    Файл
    Качество фильма: BDRip (720p)
    Информация о видео: MPEG-4 AVC, 5052 Кбит/с, 1280x534
    Информация о звуке: Русский (АС3, 6 ch, 640 Кбит/с), (DTS, 6 ch, 1510 Кбит/с), английский (DTS, 6 ch, 1510 Кбит/с)
    Размер скачиваемого торрента: 7.92 ГБ
    Время просмотра: 02:10:15
    Перевод текста: Дублированный лицензия
    Субтитры: Английские

    MI
    Общее
    Уникальный идентификатор : 184717127709318615045630178267232129512 (0x8AF73989318E03849FFD794E187ED1E8)
    Полное имя : C:The.Mortal.Instruments.City.Of.Bones.2013.720p.BluRay.DTS.x264.mkv
    Формат : Matroska
    Версия формата : Version 2
    Размер файла : 7,92 Гбайт
    Продолжительность : 2 ч. 10 м.
    Общий поток : 8707 Кбит/сек
    Название фильма : ?????????,?? ??? 1/4 ?µ???‚?,: ?“? 3/4 ??? 3/4 ?? ??? 3/4 ???‚?µ??. 2013. Rip by: ollan
    Дата кодирования : UTC 2014-03-14 17:00:42
    Программа кодирования : mkvmerge v6.7.0 (;Back to the Ground;) 64bit built on Jan 8 2014 15:10:52
    Библиотека кодирования : libebml v1.3.0 libmatroska v1.4.1

    Видео
    Идентификатор : 1
    Формат : AVC
    Формат/Информация : Advanced Video Codec
    Профиль формата : High@L4.1
    Параметр CABAC формата : Да
    Параметр ReFrames формата : 12 кадров
    Идентификатор кодека : V_MPEG4/ISO/AVC
    Продолжительность : 2 ч. 10 м.
    Битрейт : 5052 Кбит/сек
    Ширина : 1280 пикселей
    Высота : 534 пикселя
    Соотношение сторон : 2,40:1
    Режим частоты кадров : Постоянный
    Частота кадров : 23,976 кадра/сек
    Цветовое пространство : YUV
    Субдискретизация насыщенности : 4:2:0
    Битовая глубина : 8 бит
    Тип развёртки : Прогрессивная
    Бит/(Пиксели*Кадры) : 0.308
    Размер потока : 4,44 Гбайт (56%)
    Библиотека кодирования : x264 core 133 r2334 704 50 a7549b7 tMod 8-bit@4:2:0 X86_64
    Настройки программы : cabac=1 / ref=12 / deblock=1:-3:-3 / analyse=0x3:0x113 / me=umh / subme=10 / psy=1 / fade_compensate=0.00 / psy_rd=1.05:0.02 / mixed_ref=1 / me_range=32 / chroma_me=1 / trellis=2 / 8x8dct=1 / cqm=0 / deadzone=21,11 / fast_pskip=1 / chroma_qp_offset=-3 / threads=16 / lookahead_threads=1 / sliced_threads=0 / nr=0 / decimate=1 / interlaced=0 / bluray_compat=0 / constrained_intra=0 / fgo=0 / bframes=6 / b_pyramid=2 / b_adapt=1 / b_bias=0 / direct=3 / weightb=1 / open_gop=0 / weightp=2 / keyint=240 / keyint_min=23 / scenecut=40 / intra_refresh=0 / rc_lookahead=50 / rc=2pass / mbtree=1 / bitrate=5052 / ratetol=1.0 / qcomp=0.70 / qpmin=0 / qpmax=69 / qpstep=4 / cplxblur=20.0 / qblur=0.5 / vbv_maxrate=50000 / vbv_bufsize=50000 / nal_hrd=none / ip_ratio=1.40 / aq=4:0.85 / aq-sensitivity=10.00 / aq-factor=1.00:1.00:1.00 / aq2=0 / aq3=0
    Язык : English
    Default : Да
    Forced : Нет

    Аудио #1
    Идентификатор : 2
    Формат : AC-3
    Формат/Информация : Audio Coding 3
    Расширение режима : CM (complete main)
    Параметр Endianness формата : Big
    Идентификатор кодека : A_AC3
    Продолжительность : 2 ч. 10 м.
    Вид битрейта : Постоянный
    Битрейт : 640 Кбит/сек
    Каналы : 6 каналов
    Расположение каналов : Front: L C R, Side: L R, LFE
    Частота : 48,0 КГц
    Битовая глубина : 16 бит
    Метод сжатия : С потерями
    Размер потока : 596 Мбайт (7%)
    Язык : Russian
    Default : Да
    Forced : Нет

    Аудио #2
    Идентификатор : 3
    Формат : DTS
    Формат/Информация : Digital Theater Systems
    Режим : 16
    Параметр Endianness формата : Big
    Идентификатор кодека : A_DTS
    Продолжительность : 2 ч. 10 м.
    Вид битрейта : Постоянный
    Битрейт : 1509 Кбит/сек
    Каналы : 6 каналов
    Расположение каналов : Front: L C R, Side: L R, LFE
    Частота : 48,0 КГц
    Битовая глубина : 24 бит
    Метод сжатия : С потерями
    Размер потока : 1,37 Гбайт (17%)
    Язык : Russian
    Default : Нет
    Forced : Нет

    Аудио #3
    Идентификатор : 4
    Формат : DTS
    Формат/Информация : Digital Theater Systems
    Режим : 16
    Параметр Endianness формата : Big
    Идентификатор кодека : A_DTS
    Продолжительность : 2 ч. 10 м.
    Вид битрейта : Постоянный
    Битрейт : 1509 Кбит/сек
    Каналы : 6 каналов
    Расположение каналов : Front: L C R, Side: L R, LFE
    Частота : 48,0 КГц
    Битовая глубина : 24 бит
    Метод сжатия : С потерями
    Размер потока : 1,37 Гбайт (17%)
    Язык : English
    Default : Нет
    Forced : Нет

    Текст
    Идентификатор : 5
    Формат : UTF-8
    Идентификатор кодека : S_TEXT/UTF8
    Идентификатор кодека/Информация : UTF-8 Plain Text
    Язык : English
    Default : Нет
    Forced : Нет

    Меню
    00:00:00.000 : en:00:00:00.000
    00:08:04.609 : en:00:08:04.609
    00:15:02.360 : en:00:15:02.360
    00:22:18.379 : en:00:22:18.379
    00:29:46.034 : en:00:29:46.034
    00:38:43.071 : en:00:38:43.071
    00:44:12.859 : en:00:44:12.859
    00:49:45.232 : en:00:49:45.232
    00:59:47.667 : en:00:59:47.667
    01:06:47.295 : en:01:06:47.295
    01:15:36.866 : en:01:15:36.866
    01:22:36.034 : en:01:22:36.034
    01:30:04.149 : en:01:30:04.149
    01:37:07.572 : en:01:37:07.572
    01:46:02.189 : en:01:46:02.189
    01:54:13.013 : en:01:54:13.013


    Скриншоты для ознакомления






    Размер скачиваемого торрента: 7.92 GB (8507018194 Bytes)

    Орудия смерти: Город костей / The Mortal Instruments: City of Bones (2013) BDRip 720p | Лицензия | US-Transfer скачать через торрент бесплатно
    загрузка...
    Рейтинг →
     (голосов: 1, оценка 5/5, голосовать можно 1 раз )

    Другие торренты по теме:

  • Орудия смерти: Город костей / The Mortal Instruments: City of Bones (2013) HD 1080p | Трейлер торрент скачать бесплатно
  • Орудия смерти: Город костей / The Mortal Instruments: City of Bones (2013) CAMRip скачать через торрент бесплатно
  • OST - Орудия смерти: Город костей / The Mortal Instruments: City of Bones (2013) MP3 скачать через торрент бесплатно
  • Орудия смерти: Город костей / The Mortal Instruments: City of Bones (2013) HDRip | Звук с CAMRip торрент скачать бесплатно
  • Орудия смерти: Город костей / The Mortal Instruments: City of Bones (2013) DVDRip | Звук с CAMRip торрент скачать бесплатно
  • Орудия смерти: Город костей / The Mortal Instruments: City of Bones (2013) WEB-DL 1080p | Звук с CAMRip торрент скачать бесплатно
  • Орудия смерти: Город костей / The Mortal Instruments: City of Bones (2013) BDRip от Rulya74 скачать через торрент бесплатно
  • Орудие смерти / A-i-deul... (2011) DVDRip от Youtracker | P | лицензия скачать через торрент бесплатно


    • Комментарии (0):

      Информация

      Информация

        Посетители, находящиеся в группе Гости, не могут оставлять комментарии в данной новости.

        ↓ Меню



        ↓ Опрос

        А Вы добавили сайт в закладки?
        Да
        Не


        Top 10 за неделю (Фильмы)