.
Авторизация | Регистрация
» » Кошмар на улице Вязов / A Nightmare on Elm Street (1984) DVD5 | P скачать через торрент бесплатно




    Кошмар на улице Вязов / A Nightmare on Elm Street (1984) DVD5 | P скачать через торрент бесплатно

    Опубликовал: Админ | Дата: 27-02-2015, 11:10 | Просмотров: 232



    Детально о кино
    Русское название: Кошмар на улице Вязов
    Русское название в мировом прокате: A Nightmare on Elm Street
    Создали в: 1984
    Категория жанра: ужасы
    Главный режиссер: Уэс Крэйвен
    Актеры: Джон Сэксон, Рони Блейкли, Хэзер Лэнгенкэмп, Аманда Уайсс, Хсу Гарсиа, Джонни Депп, Чарльз Флайшер, Джозеф Випп, Роберт Инглунд, Лин Шэй

    Сюжет фильма:
    Старшеклассников одной из школ Спрингвуда, преследует один и тот же кошмарный сон в котором за ними гонится и кромсает на куски изуродованный человек в шляпе и с ножами на своей перчатке. И тот, кого убили во сне — умирает в реальности… Оказывается много лет назад, герой сна — Фредди Крюгер был маньяком, совершившим несколько зверских убийств детей. Их родители, не дожидаясь суда, линчевали Фредди, спалив заживо в котельной. И теперь Фредди пришел отомстить…




    Снималось в: США
    Киностудия: Media Home Entertainment, New Line Cinema, Smart Egg Pictures
    Время просмотра: 92 мин. / 01:32
    Перевод текста: профессиональный (многоголосый, закадровый)

    Файл
    Кодек для видео: MPEG2
    Качество фильма: DVD5
    Информация о видео: PAL 16:9 (720x576) VBR 5166 Kbps, 25.000 fps
    Информация о звуке: Dolby AC3, 6 ch, 48.0 KHz, 448 Kbps
    Субтитры: русские

    MediaInfo
    General
    Complete name : D:Koshmar_na_ulitse_Vyazov_DVD5VIDEO_TSVTS_03_1.VOB
    Format : MPEG-PS
    File size : 1 024 MiB
    Duration : 23mn 8s
    Overall bit rate mode : Variable
    Overall bit rate : 6 185 Kbps

    Video
    ID : 224 (0xE0)
    Format : MPEG Video
    Format version : Version 2
    Format profile : Main@Main
    Format settings, BVOP : Yes
    Format settings, Matrix : Custom
    Format settings, GOP : M=3, N=15
    Duration : 23mn 8s
    Bit rate mode : Variable
    Bit rate : 5 166 Kbps
    Maximum bit rate : 8 000 Kbps
    Width : 720 pixels
    Height : 576 pixels
    Display aspect ratio : 16:9
    Frame rate : 25.000 fps
    Standard : PAL
    Color space : YUV
    Chroma subsampling : 4:2:0
    Bit depth : 8 bits
    Scan type : Interlaced
    Scan order : Top Field First
    Compression mode : Lossy
    Bits/(Pixel*Frame) : 0.498
    Time code of first frame : 01:00:00:00
    Time code source : Group of pictures t_head
    Stream size : 855 MiB (84%)

    Audio #1
    ID : 189 (0xBD)-128 (0x80)
    Format : AC-3
    Format/Info : Audio Coding 3
    Mode extension : CM (complete main)
    Format settings, Endianness : Big
    Muxing mode : DVD-Video
    Duration : 23mn 8s
    Bit rate mode : Constant
    Bit rate : 448 Kbps
    Channel(s) : 6 channels
    Channel positions : Front: L C R, Side: L R, LFE
    Sampling rate : 48.0 KHz
    Bit depth : 16 bits
    Compression mode : Lossy
    Delay relative to video : -80ms
    Stream size : 74.2 MiB (7%)

    Audio #2
    ID : 189 (0xBD)-129 (0x81)
    Format : AC-3
    Format/Info : Audio Coding 3
    Mode extension : CM (complete main)
    Format settings, Endianness : Big
    Muxing mode : DVD-Video
    Duration : 23mn 8s
    Bit rate mode : Constant
    Bit rate : 448 Kbps
    Channel(s) : 6 channels
    Channel positions : Front: L C R, Side: L R, LFE
    Sampling rate : 48.0 KHz
    Bit depth : 16 bits
    Compression mode : Lossy
    Delay relative to video : -80ms
    Stream size : 74.2 MiB (7%)

    Text
    ID : 189 (0xBD)-32 (0x20)
    Format : RLE
    Format/Info : Run-length encoding
    Muxing mode : DVD-Video

    Menu

    Скриншоты для ознакомления

    Залил: carisha
    Размер скачиваемого торрента: 3.84 GB (4120793088 Bytes)

    Кошмар на улице Вязов / A Nightmare on Elm Street (1984) DVD5 | P скачать через торрент бесплатно
    загрузка...
    Рейтинг →
     (голосов: 1, оценка 5/5, голосовать можно 1 раз )

    Другие торренты по теме:

  • Кошмар перед Рождеством / The Nightmare Before Christmas (1993) BDRip 1080p от Filmrus торрент скачать бесплатно
  • Царство кошмара: В конце... / Nightmare Realm: In the End... CE (2012) PC торрент скачать бесплатно
  • Дарья Донцова - Ночной кошмар Железного Любовника (2012) FB2, TXT, RTF, HTML, PDF торрент скачать бесплатно
  • Коралина в Cтране Кошмаров / Coraline (2009) BDRip 1080p от Youtracker | 3D-Video торрент скачать бесплатно
  • Кошмар матери / A Mothers Nightmare (2012) WEB-DLRip | L2 торрент скачать бесплатно
  • Кошмары на кухне / Kitchen Nightmares USA (2011) TVRip от Files-x торрент скачать бесплатно
  • Кошмар на улице Вязов / A Nightmare on Elm Street (1984) HDRip торрент скачать бесплатно
  • Кошмар на улице Вязов 2: Месть Фредди / A Nightmare on Elm Street Part 2: Freddys Revenge (1985) DVDRip торрент скачать бесплатно


    • Комментарии (0):

      Информация

      Информация

        Посетители, находящиеся в группе Гости, не могут оставлять комментарии в данной новости.

        ↓ Меню



        ↓ Опрос

        А Вы добавили сайт в закладки?
        Да
        Не


        Top 10 за неделю (Фильмы)