.
Авторизация | Регистрация
Хочешь лучшие торренты? Добавь свой email!
Добавить
» » Масло в огонь / De lhuile sur le feu (2011) BDRip-AVC | P скачать через торрент бесплатно




    Масло в огонь / De lhuile sur le feu (2011) BDRip-AVC | P скачать через торрент бесплатно

    Опубликовал: Админ | Дата: 27-02-2015, 11:10 | Просмотров: 218



    Детально о кино
    Русское название: Масло в огонь
    Русское название в мировом прокате: De l;huile sur le feu
    Создали в: 2011
    Категория жанра: Kомедия
    Главный режиссер: Николас Бенаму
    Актеры: Надер Буссандель, Венсан Лакост, Тиен Шу, Azzedine Benamara, Алис Белаиди, Фатсах Буяхмед, Бан Хэй Мин, Юбай Чжан, Эмир Сегир, Paul Sheng

    Сюжет фильма:
    Во Французском квартале, Бельвиле, по соседству друг с другом расположились два ресторана: арабский Бербере Кинг, принадлежащий семейству Шуффри, и китайский Империя дракона, владельцами которого является семья Зи. Конечно же между ними уже долгое время длится настоящая война за посетителей, в ходе которой они стали самыми заклятыми врагами. Всеми способами они пытаются сделать так, чтобы люди приходили именно к ним, а не к соседям. Но однажды их вражда достигла самой горячей точки, после того, как Шуффри, без веских доказательств, обвинил китайца Зи в том, что тот съел на обед их любимую собаку. Чем же закончиться их противостояние, и какой ответ последует от соседей?..




    Снималось в: Франция
    Киностудия: Agence Nationale pour la Coh?sion Sociale et l;Egalit? des Chances (ACSE)
    Время просмотра: 01:26:29
    Перевод текста: Профессиональный многоголосый НТВ

    Файл
    Кодек для видео: h.264
    Качество фильма: BDRip-AVC
    Информация о видео: AVC, 1024 x 432, ~1895 kbps
    Информация о звуке: Русский: AC-3, 2 ch, 192 kbps / Французский: AC-3, 6 ch, 448 kbps

    Семпл

    Скриншоты для ознакомления
    MI
    Общее
    Уникальный идентификатор : 168348648403719580577546155723716462494 (0x7EA6C532C2870C1E037BA147C20E879E)
    Полное имя : G:Масло в огонь De lhuile sur le feu Wok the Kasbah (2011) BDRip-AVCWok.The.Kasbah.2011.BDrip-AVC..mkv
    Формат : Matroska
    Версия формата : Version 2
    Размер файла : 1,56 Гбайт
    Продолжительность : 1 ч. 26 м.
    Режим общего битрейта : Переменный
    Общий поток : 2587 Кбит/сек
    Программа кодирования : Lavf51.12.1
    Библиотека кодирования : Lavf51.12.1

    Видео
    Идентификатор : 1
    Формат : AVC
    Формат/Информация : Advanced Video Codec
    Профиль формата : Baseline@L3.1
    Параметр CABAC формата : Нет
    Параметр ReFrames формата : 1 кадр
    Параметр GOP формата : M=1, N=12
    Идентификатор кодека : V_MPEG4/ISO/AVC
    Продолжительность : 1 ч. 26 м.
    Вид битрейта : Переменный
    Битрейт : 1895 Кбит/сек
    Максимальный битрейт : 2790 Кбит/сек
    Ширина : 1024 пикселя
    Высота : 432 пикселя
    Соотношение сторон : 2,40:1
    Режим частоты кадров : Постоянный
    Частота кадров : 25,000 кадров/сек
    Частота кадров в оригинале : 24,000 кадра/сек
    Цветовое пространство : YUV
    Субдискретизация насыщенности : 4:2:0
    Битовая глубина : 8 бит
    Тип развёртки : Прогрессивная
    Бит/(Пиксели*Кадры) : 0.171
    Размер потока : 1,15 Гбайт (73%)
    Язык : French
    Default : Да
    Forced : Нет

    Аудио #1
    Идентификатор : 2
    Формат : AC-3
    Формат/Информация : Audio Coding 3
    Расширение режима : CM (complete main)
    Параметр Endianness формата : Big
    Идентификатор кодека : A_AC3
    Продолжительность : 1 ч. 26 м.
    Вид битрейта : Постоянный
    Битрейт : 192 Кбит/сек
    Каналы : 2 канала
    Расположение каналов : Front: L R
    Частота : 48,0 КГц
    Битовая глубина : 16 бит
    Метод сжатия : С потерями
    Размер потока : 119 Мбайт (7%)
    Язык : Russian
    Default : Да
    Forced : Нет

    Аудио #2
    Идентификатор : 3
    Формат : AC-3
    Формат/Информация : Audio Coding 3
    Расширение режима : CM (complete main)
    Параметр Endianness формата : Big
    Идентификатор кодека : A_AC3
    Продолжительность : 1 ч. 26 м.
    Вид битрейта : Постоянный
    Битрейт : 448 Кбит/сек
    Каналы : 6 каналов
    Расположение каналов : Front: L C R, Side: L R, LFE
    Частота : 48,0 КГц
    Битовая глубина : 16 бит
    Метод сжатия : С потерями
    Размер потока : 277 Мбайт (17%)
    Язык : French
    Default : Да
    Forced : Нет

    Размер скачиваемого торрента: 1.56 GB (1678093197 Bytes)

    Масло в огонь / De lhuile sur le feu (2011) BDRip-AVC | P скачать через торрент бесплатно
    загрузка...
    Рейтинг →
     (голосов: 1, оценка 4/5, голосовать можно 1 раз )

    Другие торренты по теме:

  • Масло в огонь / De lhuile sur le feu (2011) SATRip от MediaClub | P
  • Масло в огонь / De lhuile sur le feu (2011) DVB от MediaClub | P скачать через торрент бесплатно
  • Масло в огонь / De lhuile sur le feu / Wok the Kasbah (2011) BDRip 720p от CINEMANIA | НТВ
  • Масло в огонь / De lhuile sur le feu / Wok the Kasbah (2011) BDRip 1080p от CINEMANIA | НТВ


    • Комментарии (0):

      Информация

      Информация

        Посетители, находящиеся в группе Гости, не могут оставлять комментарии в данной новости.

        ↓ Меню



        ↓ Опрос

        А Вы добавили сайт в закладки?
        Да
        Не


        Top 10 за месяц (Фильмы)