.
Авторизация | Регистрация
Хочешь лучшие торренты? Добавь свой email!
Добавить
» » Отец-молодец / Delivery Man (2013) BDRemux 1080p от New-Team | D | лицензия скачать через торрент бесплатно




    Отец-молодец / Delivery Man (2013) BDRemux 1080p от New-Team | D | лицензия скачать через торрент бесплатно

    Опубликовал: Админ | Дата: 27-02-2015, 11:10 | Просмотров: 192

    Тебе от 17 до 23? Ты уверен, что это не твой отец?



    Снималось в: США / DreamWorks SKG

    Категория жанра: комедия, драма
    Создали в: 2013
    Время просмотра: 1:44:47
    Перевод текста: Профессиональный дублированный
    Субтитры подготовлены: русский, английский
    Оригинальная аудиодорожка: английский

    Главный режиссер: Кен Скотт / Ken Scott

    Актеры: Винс Вон, Крис Прэтт, Коби Смолдерс, Анджей Блюменфельд, Саймон Делани, Бобби Мойнахан, Дэйв Паттен, Адам Чанлер-Берат, Бритт Робертсон, Джек Рейнор...

    Роли дублировали: Валерий Смекалов

    Сюжет: Жизнь бруклинского работяги Дэвида Возняка не похожа на праздник: у него кризис среднего возраста, он должен денег подпольному ростовщику, девушка собирается его бросить, а родной отец грозит увольнением с работы. А в довершение всех бед к нему приходит адвокат с известием о том, что в результате ошибки, которую двадцать лет назад совершили в банке спермы, который Дэвид посещал в студенческие годы, он является биологическим отцом 533 детей. И 142 из них обратились в суд с требованием раскрыть имя своего родителя. Вначале Дэвид не знает, что делать в такой ситуации, но постепенно любопытство перевешивает, и он решает — инкогнито — узнать поближе хотя бы некоторых из своих нежданных потомков…



    Качество фильма: BDRemux 1080p / Blu-ray 1080p
    Тип видео: MKV

    Информация о видео: 1920x1080, MPEG-4 AVC Video 29994 kbps 1080p / 23,976 fps / 16:9 / High Profile 4.1
    Информация о звуке:
    Dolby Digital Audio Russian 640 kbps 5.1 / 48 kHz / 640 kbps
    DTS-HD Master Audio English 3539 kbps 5.1 / 48 kHz / 3539 kbps / 24-bit (DTS Core: 5.1 / 48 kHz / 1509 kbps / 24-bit)
    Dolby Digital Audio English 320 kbps 2.0 / 48 kHz / 320 kbps / Dolby Surround
    Фррмат субтитров: SoftSub (srt)

    Дополнительно: Фильм разбит на главы, как на оригинальном Blu-ray диске.

    Дополнительные материалы: Создание семьи, Винс Вон, Смешные дубли, Удаленные сцены

    Раздача от:
    MediaInfo

    Общее
    Полное имя : Otets-molodets.2013.D.BDRemux.1080p.New-Team.mkv
    Формат : Matroska
    Версия формата : Version 4 / Version 2
    Размер файла : 25,2 Гбайт
    Продолжительность : 1 ч. 44 м.
    Режим общего битрейта : Переменный
    Общий поток : 34,4 Мбит/сек
    Дата кодирования : UTC 2014-03-14 14:46:32
    Программа кодирования : mkvmerge v6.8.0 (;Theme for Great Cities;) 64bit built on Mar 2 2014 21:34:26
    Библиотека кодирования : libebml v1.3.0 libmatroska v1.4.1

    Видео
    Идентификатор : 1
    Формат : AVC
    Формат/Информация : Advanced Video Codec
    Профиль формата : High@L4.1
    Параметр CABAC формата : Да
    Параметр ReFrames формата : 4 кадра
    Идентификатор кодека : V_MPEG4/ISO/AVC
    Продолжительность : 1 ч. 44 м.
    Вид битрейта : Переменный
    Максимальный битрейт : 32,0 Мбит/сек
    Ширина : 1920 пикселей
    Высота : 1080 пикселей
    Соотношение сторон : 16:9
    Режим частоты кадров : Постоянный
    Частота кадров : 23,976 кадра/сек
    Цветовое пространство : YUV
    Субдискретизация насыщенности : 4:2:0
    Битовая глубина : 8 бит
    Тип развёртки : Прогрессивная
    Default : Да
    Forced : Нет

    Аудио #1
    Идентификатор : 2
    Формат : AC-3
    Формат/Информация : Audio Coding 3
    Расширение режима : CM (complete main)
    Параметр Endianness формата : Big
    Идентификатор кодека : A_AC3
    Продолжительность : 1 ч. 44 м.
    Вид битрейта : Постоянный
    Битрейт : 640 Кбит/сек
    Каналы : 6 каналов
    Расположение каналов : Front: L C R, Side: L R, LFE
    Частота : 48,0 КГц
    Битовая глубина : 16 бит
    Метод сжатия : С потерями
    Размер потока : 480 Мбайт (2%)
    Язык : Russian
    Default : Да
    Forced : Нет

    Аудио #2
    Идентификатор : 3
    Формат : DTS
    Формат/Информация : Digital Theater Systems
    Профиль формата : MA / Core
    Режим : 16
    Параметр Endianness формата : Big
    Идентификатор кодека : A_DTS
    Продолжительность : 1 ч. 44 м.
    Вид битрейта : Переменный
    Битрейт : Неизвестно / 1509 Кбит/сек
    Каналы : 6 каналов
    Расположение каналов : Front: L C R, Side: L R, LFE
    Частота : 48,0 КГц
    Битовая глубина : 24 бит
    Метод сжатия : Без потерь / Lossy
    Язык : English
    Default : Нет
    Forced : Нет

    Аудио #3
    Идентификатор : 4
    Формат : AC-3
    Формат/Информация : Audio Coding 3
    Профиль формата : Dolby Digital
    Расширение режима : CM (complete main)
    Параметр Endianness формата : Big
    Идентификатор кодека : A_AC3
    Продолжительность : 1 ч. 44 м.
    Вид битрейта : Постоянный
    Битрейт : 320 Кбит/сек
    Каналы : 2 канала
    Расположение каналов : Front: L R
    Частота : 48,0 КГц
    Битовая глубина : 16 бит
    Метод сжатия : С потерями
    Размер потока : 240 Мбайт (1%)
    Язык : English
    Default : Нет
    Forced : Нет

    Текст #1
    Идентификатор : 5
    Формат : UTF-8
    Идентификатор кодека : S_TEXT/UTF8
    Идентификатор кодека/Информация : UTF-8 Plain Text
    Язык : Russian
    Default : Да
    Forced : Нет

    Текст #2
    Идентификатор : 6
    Формат : UTF-8
    Идентификатор кодека : S_TEXT/UTF8
    Идентификатор кодека/Информация : UTF-8 Plain Text
    Язык : Russian
    Default : Нет
    Forced : Нет

    Текст #3
    Идентификатор : 7
    Формат : UTF-8
    Идентификатор кодека : S_TEXT/UTF8
    Идентификатор кодека/Информация : UTF-8 Plain Text
    Язык : English
    Default : Нет
    Forced : Нет

    Текст #4
    Идентификатор : 8
    Формат : UTF-8
    Идентификатор кодека : S_TEXT/UTF8
    Идентификатор кодека/Информация : UTF-8 Plain Text
    Язык : English
    Default : Нет
    Forced : Нет

    Меню
    00:00:00.000 : en:Chapter 1
    00:04:12.335 : en:Chapter 2
    00:10:42.391 : en:Chapter 3
    00:15:03.861 : en:Chapter 4
    00:21:04.054 : en:Chapter 5
    00:27:42.494 : en:Chapter 6
    00:35:00.556 : en:Chapter 7
    00:40:03.400 : en:Chapter 8
    00:45:06.286 : en:Chapter 9
    00:51:59.115 : en:Chapter 10
    00:58:35.011 : en:Chapter 11
    01:04:47.216 : en:Chapter 12
    01:07:59.325 : en:Chapter 13
    01:15:05.125 : en:Chapter 14
    01:20:11.223 : en:Chapter 15
    01:24:59.677 : en:Chapter 16
    01:30:48.317 : en:Chapter 17
    01:39:56.490 : en:Chapter 18
    01:44:46.613 : en:Chapter 19

    Скриншоты для ознакомления:



    Залил: avproh
    Размер скачиваемого торрента: 25.20 GB (27055169985 Bytes)

    Отец-молодец / Delivery Man (2013) BDRemux 1080p от New-Team | D | лицензия скачать через торрент бесплатно
    загрузка...
    Рейтинг →
     (голосов: 1, оценка 5/5, голосовать можно 1 раз )

    Другие торренты по теме:

  • Отец-молодец / Delivery Man (2013) BDRip-AVC | iTunes скачать через торрент бесплатно
  • Отец-молодец / Delivery Man (2013) BDRip 1080p | iTunes скачать через торрент бесплатно
  • Отец-молодец / Delivery Man (2013) BDRip 720p | iTunes скачать через торрент бесплатно
  • Отец-молодец / Delivery Man (2013) HDRip | iTunes скачать через торрент бесплатно
  • Отец-молодец / Delivery Man (2013) HDRip от Torrange | D | iTunes
  • Отец-молодец / Delivery Man (2013) BDRip-AVC от MediaClub | iTunes
  • Отец-молодец / Delivery Man (2013) HDRip от Scarabey | iTunes скачать через торрент бесплатно
  • Отец-молодец / Delivery Man (2013) BDRip 720p от Leonardo and Scarabey | iTunes скачать через торрент бесплатно


    • Комментарии (0):

      Информация

      Информация

        Посетители, находящиеся в группе Гости, не могут оставлять комментарии в данной новости.

        ↓ Меню



        ↓ Опрос

        А Вы добавили сайт в закладки?
        Да
        Не


        Top 10 за месяц (Фильмы)