.
Авторизация | Регистрация
Хочешь лучшие торренты? Добавь свой email!
Добавить
» » Лучший стрелок / Топ Ган / Top Gun (1986) BDRip-AVC | P, P2, A скачать через торрент бесплатно




    Лучший стрелок / Топ Ган / Top Gun (1986) BDRip-AVC | P, P2, A скачать через торрент бесплатно

    Опубликовал: Админ | Дата: 27-02-2015, 11:10 | Просмотров: 292

    Лучший стрелок / Топ Ган / Top Gun (1986) BDRip


    Создали в: 1986
    Категория жанра: Боевик, Военный, Мелодрама
    Производство: США, Paramount Pictures
    Время просмотра: 01:49:35
    Перевод текста: Профессиональный (многоголосый закадровый), авторский (одноголосый закадровый) А.Гаврилов, авторский (одноголосый закадровый) Ю.Живов, авторский (одноголосый закадровый) В.Горчаков, авторский (одноголосый закадровый) А.Михалёв, авторский (одноголосый закадровый) Л.Володарский, авторский (одноголосый закадровый) А.Иванов, профессиональный (двухголосый закадровый) Премьер Видео Фильм
    Язык субтитров: Русский, английский
    Вид субтитров: Вшитые отключаемые

    Главный режиссер: Тони Скотт
    Актеры: Том Круз, Келли МакГиллис, Вэл Килмер, Энтони Эдвардс, Том Скерритт, Майкл Айронсайд

    Сюжет фильма:
    Искусный пилот истребителя F - 14 Пит Митчелл, курсант элитного училища ВМС США, летающий как бог и руководимый как в жизни, так и в небе инстинктами, а не разумом, влюбляется в инструктора училища, астрофизика Чарли, которая долгое время отказывает ему во взаимности. Уступит ли она его белозубой улыбке? Фильм пользовался огромным кассовым успехом в США и был отмечен Оскаром за лучшую песню.



    Дата мировой премьеры: 12 мая 1986
    Дата выхода DVD релиза: 22 декабря 2009, Юниверсал Пикчерс Рус

    Качество фильма: BDRip-AVC
    Информация о видео: H.264, 1024x426, 23,976 кадра/сек, ~2000 Кбит/сек
    Аудио:
    Информация о звуке 1: AC3 5.1, 448 kb/s - профессиональный (многоголосый закадровый)
    Информация о звуке 2: AC3 5.1, 448 kb/s - авторский (одноголосый закадровый) А.Гаврилов
    Информация о звуке 3: AC3 5.1, 448 kb/s - авторский (одноголосый закадровый) Ю.Живов
    Информация о звуке 4: AC3 2.0, 192 kb/s - авторский (одноголосый закадровый) В.Горчаков
    Информация о звуке 5: AC3 2.0, 192 kb/s - авторский (одноголосый закадровый) А.Михалёв
    Информация о звуке 6: AC3 2.0, 192 kb/s - авторский (одноголосый закадровый) Л.Володарский
    Информация о звуке 7: AC3 2.0, 192 kb/s - авторский (одноголосый закадровый) А.Иванов
    Информация о звуке 8: AC3 2.0, 224 kb/s - профессиональный (двухголосый закадровый) Премьер Видео Фильм

    MediaInfo:
    Формат : Matroska
    Версия формата : Version 4 / Version 2
    Размер файла : 3,32 Гбайт
    Продолжительность : 1 ч. 49 м.
    Общий поток : 4339 Кбит/сек
    Дата кодирования : UTC 2014-03-14 09:14:04
    Программа кодирования : mkvmerge v6.8.0 (;Theme for Great Cities;) 32bit built on Mar 2 2014 21:27:07
    Библиотека кодирования : libebml v1.3.0 libmatroska v1.4.1
    Attachment : Yes

    Видео
    Идентификатор : 1
    Формат : AVC
    Формат/Информация : Advanced Video Codec
    Профиль формата : High@L4.1
    Параметр CABAC формата : Да
    Параметр ReFrames формата : 8 кадров
    Идентификатор кодека : V_MPEG4/ISO/AVC
    Продолжительность : 1 ч. 49 м.
    Битрейт : 2000 Кбит/сек
    Ширина : 1024 пикселя
    Высота : 426 пикселей
    Соотношение сторон : 2,40:1
    Режим частоты кадров : Постоянный
    Частота кадров : 23,976 кадра/сек
    Цветовое пространство : YUV
    Субдискретизация насыщенности : 4:2:0
    Битовая глубина : 8 бит
    Тип развёртки : Прогрессивная
    Бит/(Пиксели*Кадры) : 0.191
    Размер потока : 1,47 Гбайт (44%)
    Библиотека кодирования : x264 core 120 r2164 da19765
    Настройки программы : cabac=1 / ref=8 / deblock=1:-1:-1 / analyse=0x3:0x133 / me=umh / subme=9 / psy=1 / psy_rd=1.00:0.15 / mixed_ref=1 / me_range=16 / chroma_me=1 / trellis=2 / 8x8dct=1 / cqm=0 / deadzone=21,11 / fast_pskip=1 / chroma_qp_offset=-3 / threads=3 / sliced_threads=0 / nr=0 / decimate=1 / interlaced=0 / bluray_compat=0 / constrained_intra=0 / bframes=3 / b_pyramid=2 / b_adapt=2 / b_bias=0 / direct=3 / weightb=1 / open_gop=0 / weightp=2 / keyint=240 / keyint_min=23 / scenecut=40 / intra_refresh=0 / rc_lookahead=60 / rc=2pass / mbtree=1 / bitrate=2000 / ratetol=1.0 / qcomp=0.60 / qpmin=0 / qpmax=69 / qpstep=4 / cplxblur=20.0 / qblur=0.5 / ip_ratio=1.40 / aq=1:1.00
    Язык : English
    Default : Да
    Forced : Нет

    Аудио #1
    Идентификатор : 2
    Формат : AC-3
    Формат/Информация : Audio Coding 3
    Расширение режима : CM (complete main)
    Параметр Endianness формата : Big
    Идентификатор кодека : A_AC3
    Продолжительность : 1 ч. 49 м.
    Вид битрейта : Постоянный
    Битрейт : 448 Кбит/сек
    Каналы : 6 каналов
    Расположение каналов : Front: L C R, Side: L R, LFE
    Частота : 48,0 КГц
    Битовая глубина : 16 бит
    Метод сжатия : С потерями
    Размер потока : 351 Мбайт (10%)
    Заголовок : 48 kHz, AC3 Dolby Digital, 3/2 (L,C,R,l,r) LFE ch, ~448 kbps (Многоголосый)
    Язык : Russian
    Default : Да
    Forced : Да

    Аудио #2
    Идентификатор : 3
    Формат : AC-3
    Формат/Информация : Audio Coding 3
    Расширение режима : CM (complete main)
    Параметр Endianness формата : Big
    Идентификатор кодека : A_AC3
    Продолжительность : 1 ч. 49 м.
    Вид битрейта : Постоянный
    Битрейт : 448 Кбит/сек
    Каналы : 6 каналов
    Расположение каналов : Front: L C R, Side: L R, LFE
    Частота : 48,0 КГц
    Битовая глубина : 16 бит
    Метод сжатия : С потерями
    Размер потока : 351 Мбайт (10%)
    Заголовок : 48 kHz, AC3 Dolby Digital, 3/2 (L,C,R,l,r) LFE ch, ~448 kbps (Гаврилов)
    Язык : Russian
    Default : Нет
    Forced : Нет

    Аудио #3
    Идентификатор : 4
    Формат : AC-3
    Формат/Информация : Audio Coding 3
    Расширение режима : CM (complete main)
    Параметр Endianness формата : Big
    Идентификатор кодека : A_AC3
    Продолжительность : 1 ч. 49 м.
    Вид битрейта : Постоянный
    Битрейт : 448 Кбит/сек
    Каналы : 6 каналов
    Расположение каналов : Front: L C R, Side: L R, LFE
    Частота : 48,0 КГц
    Битовая глубина : 16 бит
    Метод сжатия : С потерями
    Размер потока : 351 Мбайт (10%)
    Заголовок : 48 kHz, AC3 Dolby Digital, 3/2 (L,C,R,l,r) LFE ch, ~448 kbps (Живов)
    Язык : Russian
    Default : Нет
    Forced : Нет

    Аудио #4
    Идентификатор : 5
    Формат : AC-3
    Формат/Информация : Audio Coding 3
    Расширение режима : CM (complete main)
    Параметр Endianness формата : Big
    Идентификатор кодека : A_AC3
    Продолжительность : 1 ч. 49 м.
    Вид битрейта : Постоянный
    Битрейт : 192 Кбит/сек
    Каналы : 2 канала
    Расположение каналов : Front: L R
    Частота : 48,0 КГц
    Битовая глубина : 16 бит
    Метод сжатия : С потерями
    Размер потока : 151 Мбайт (4%)
    Заголовок : 48 kHz, AC3, 2 ch, ~192 kbps, (Горчаков)
    Язык : Russian
    Default : Нет
    Forced : Нет

    Аудио #5
    Идентификатор : 6
    Формат : AC-3
    Формат/Информация : Audio Coding 3
    Расширение режима : CM (complete main)
    Параметр Endianness формата : Big
    Идентификатор кодека : A_AC3
    Продолжительность : 1 ч. 49 м.
    Вид битрейта : Постоянный
    Битрейт : 192 Кбит/сек
    Каналы : 2 канала
    Расположение каналов : Front: L R
    Частота : 48,0 КГц
    Битовая глубина : 16 бит
    Метод сжатия : С потерями
    Размер потока : 151 Мбайт (4%)
    Заголовок : 48 kHz, AC3, 2 ch, ~192 kbps, (Михалев)
    Язык : Russian
    Default : Нет
    Forced : Нет

    Аудио #6
    Идентификатор : 7
    Формат : AC-3
    Формат/Информация : Audio Coding 3
    Расширение режима : CM (complete main)
    Параметр Endianness формата : Big
    Идентификатор кодека : A_AC3
    Продолжительность : 1 ч. 49 м.
    Вид битрейта : Постоянный
    Битрейт : 192 Кбит/сек
    Каналы : 2 канала
    Расположение каналов : Front: L R
    Частота : 48,0 КГц
    Битовая глубина : 16 бит
    Метод сжатия : С потерями
    Размер потока : 151 Мбайт (4%)
    Заголовок : 48 kHz, AC3, 2 ch, ~192 kbps, (Володарский)
    Язык : Russian
    Default : Нет
    Forced : Нет

    Аудио #7
    Идентификатор : 8
    Формат : AC-3
    Формат/Информация : Audio Coding 3
    Расширение режима : CM (complete main)
    Параметр Endianness формата : Big
    Идентификатор кодека : A_AC3
    Продолжительность : 1 ч. 49 м.
    Вид битрейта : Постоянный
    Битрейт : 192 Кбит/сек
    Каналы : 2 канала
    Расположение каналов : Front: L R
    Частота : 48,0 КГц
    Битовая глубина : 16 бит
    Метод сжатия : С потерями
    Размер потока : 151 Мбайт (4%)
    Заголовок : 48 kHz, AC3, 2 ch, ~192 kbps, (Иванов)
    Язык : Russian
    Default : Нет
    Forced : Нет

    Аудио #8
    Идентификатор : 9
    Формат : AC-3
    Формат/Информация : Audio Coding 3
    Расширение режима : CM (complete main)
    Параметр Endianness формата : Big
    Идентификатор кодека : A_AC3
    Продолжительность : 1 ч. 49 м.
    Вид битрейта : Постоянный
    Битрейт : 224 Кбит/сек
    Каналы : 2 канала
    Расположение каналов : Front: L R
    Частота : 48,0 КГц
    Битовая глубина : 16 бит
    Метод сжатия : С потерями
    Размер потока : 176 Мбайт (5%)
    Заголовок : 48 kHz, AC3, 2 ch, ~192 kbps, (Двухголосый - Premier)
    Язык : Russian
    Default : Нет
    Forced : Нет

    Текст #1
    Идентификатор : 10
    Формат : UTF-8
    Идентификатор кодека : S_TEXT/UTF8
    Идентификатор кодека/Информация : UTF-8 Plain Text
    Язык : Russian
    Default : Да
    Forced : Нет

    Текст #2
    Идентификатор : 11
    Формат : UTF-8
    Идентификатор кодека : S_TEXT/UTF8
    Идентификатор кодека/Информация : UTF-8 Plain Text
    Язык : English
    Default : Нет
    Forced : Нет

    Скриншоты для ознакомления


    Размер скачиваемого торрента: 3.32 GB (3566665534 Bytes)

    Лучший стрелок / Топ Ган / Top Gun (1986) BDRip-AVC | P, P2, A скачать через торрент бесплатно
    загрузка...
    Рейтинг →
     (голосов: 1, оценка 5/5, голосовать можно 1 раз )

    Другие торренты по теме:

  • Лучший стрелок / Top Gun (1986) BDRip 720р | P, А
  • Лучший стрелок в 3Д / Top Gun 3D (1986) BDRip-AVC 1080p | 3D-Video
  • Топ Ган (Лучший стрелок) / Top Gun (1986) BDRip 1080p скачать через торрент бесплатно
  • Лучший стрелок / Top Gun (1986) BDRip-AVC от Leonardo and Scarabey
  • Лучший стрелок / Top shot (2010) SATRip от HitWay | P1
  • Лучший стрелок 2 / Top shot (2011) SATRip от HitWay | P1 скачать через торрент бесплатно
  • Лучший стрелок 4 / Top shot (2012) SATRip от HitWay | P2
  • Лучший стрелок 3 / Top shot (2011) SATRip от HitWay | P1


    • Комментарии (0):

      Информация

      Информация

        Посетители, находящиеся в группе Гости, не могут оставлять комментарии в данной новости.

        ↓ Меню



        ↓ Опрос

        А Вы добавили сайт в закладки?
        Да
        Не


        Top 10 за месяц (Фильмы)