.
Авторизация | Регистрация
» » Бриллиантовый полицейский / Blue Streak (1999) BDRemux 1080p от NovaLan скачать через торрент бесплатно




    Бриллиантовый полицейский / Blue Streak (1999) BDRemux 1080p от NovaLan скачать через торрент бесплатно

    Опубликовал: Админ | Дата: 27-02-2015, 11:10 | Просмотров: 261



    Русское название: Бриллиантовый полицейский
    Русское название в мировом прокате: Blue Streak
    Создали в: 1999
    Категория жанра: Боевик, триллер, комедия, криминал
    Главный режиссер: Лес Мэйфилд
    Актеры: Мартин Лоуренс, Люк Уилсон, Питер Грин, Дэйв Шапелл, Николь Ари Паркер, Грэм Беккел, Роберт Миранда, Олек Крупа, Саверио Гуэрра, Тамала Джонс, Хулио Оскар Мечосо, Стив Рэнкин, Кармен Ардженциано, Джон Хоукс, Роберт ЛаСардо
    Сюжет фильма:
    Вор должен сидеть в тюрьме, а не работать в полиции. Создатели этого комедийного боевика с этим не согласны. Непревзойденный эксперт по сейфам и хранящимся в них драгоценностям Майлс Логан выходит из тюрьмы и сразу направляется … в полицию. Незадолго перед арестом он спрятал бесценный бриллиант в строящемся здании, которое вскоре превратилось в полицейский участок.
    Чтобы проникнуть на вражескую территорию и вернуть украденное, Майлс становится служителем закона и, как назло, ему приходится участвовать в настоящих расследованиях. За считанные дни неисправимый рецидивист становится руководителем целого подразделения! Ведь никто лучше вора не знает всех тонкостей криминального мира. Однако все это время преступное сообщество внимательно следило за карьерой бриллиантового полицейского. И приняло меры.


    Снималось в: США, Германия, Blue Streak Productions, Columbia Pictures Corporation, Global Entertainment Productions GmbH Company Medien KG
    Время просмотра: 01:34:07
    Перевод текста: Дублированный / Профессиональный многоголосый (R5) / Профессиональный многоголосый (ОРТ) / Авторский одноголосый (Санаев, Латышев)

    Кодек для видео: H.264
    Качество фильма: Blu-Ray Remux 1080p
    Информация о видео: MPEG-4 AVC, 27.8 Мбит/с, 1920x1080, 23.976 кадр/с
    Информация о звуке: Русский (AC3, 6 ch, 640 Кбит/с), (AC3, 6 ch, 448 Кбит/с), (AC3, 6 ch, 384 Кбит/с), (AC3, 2 ch, 192 Кбит/с), английский (DTS-HD MA, 6 ch, 1561 Кбит/с)
    Субтитры: Русские, английские

    Инфо-файл

    Полное имя : E:Раздачи_EBlue.Streak.1999.BDRemux.1080p.NovaLan.mkv
    Формат : Matroska
    Версия формата : Version 4 / Version 2
    Размер файла : 21,1 Гбайт
    Продолжительность : 1 ч. 34 м.
    Режим общего битрейта : Переменный
    Общий поток : 32,1 Мбит/сек
    Название фильма : Blue Streak 1999 - NovaLan
    Дата кодирования : UTC 2014-03-13 22:34:24
    Программа кодирования : mkvmerge v6.8.0 (;Theme for Great Cities;) 64bit built on Mar 2 2014 21:34:26
    Библиотека кодирования : libebml v1.3.0 libmatroska v1.4.1

    Видео
    Идентификатор : 1
    Формат : AVC
    Формат/Информация : Advanced Video Codec
    Профиль формата : High@L4.1
    Параметр CABAC формата : Да
    Параметр ReFrames формата : 4 кадра
    Параметр GOP формата : M=3, N=12
    Идентификатор кодека : V_MPEG4/ISO/AVC
    Продолжительность : 1 ч. 34 м.
    Вид битрейта : Переменный
    Битрейт : 27,8 Мбит/сек
    Максимальный битрейт : 29,5 Мбит/сек
    Ширина : 1920 пикселей
    Высота : 1080 пикселей
    Соотношение сторон : 16:9
    Частота кадров : 23,976 кадра/сек
    Цветовое пространство : YUV
    Субдискретизация насыщенности : 4:2:0
    Битовая глубина : 8 бит
    Тип развёртки : Прогрессивная
    Бит/(Пиксели*Кадры) : 0.559
    Размер потока : 18,3 Гбайт (87%)
    Заголовок : Blue Streak 1999 - NovaLan
    Default : Да
    Forced : Нет
    Основные цвета : BT.709-5, BT.1361, IEC 61966-2-4, SMPTE RP177
    Характеристики трансфера : BT.709-5, BT.1361
    Коэффициенты матрицы : BT.709-5, BT.1361, IEC 61966-2-4 709, SMPTE RP177

    Аудио #1
    Идентификатор : 2
    Формат : AC-3
    Формат/Информация : Audio Coding 3
    Расширение режима : CM (complete main)
    Параметр Endianness формата : Big
    Идентификатор кодека : A_AC3
    Продолжительность : 1 ч. 34 м.
    Вид битрейта : Постоянный
    Битрейт : 640 Кбит/сек
    Каналы : 6 каналов
    Расположение каналов : Front: L C R, Side: L R, LFE
    Частота : 48,0 КГц
    Битовая глубина : 16 бит
    Метод сжатия : С потерями
    Размер потока : 431 Мбайт (2%)
    Язык : Russian
    Default : Да
    Forced : Нет

    Аудио #2
    Идентификатор : 3
    Формат : AC-3
    Формат/Информация : Audio Coding 3
    Расширение режима : CM (complete main)
    Параметр Endianness формата : Big
    Идентификатор кодека : A_AC3
    Продолжительность : 1 ч. 34 м.
    Вид битрейта : Постоянный
    Битрейт : 448 Кбит/сек
    Каналы : 6 каналов
    Расположение каналов : Front: L C R, Side: L R, LFE
    Частота : 48,0 КГц
    Битовая глубина : 16 бит
    Метод сжатия : С потерями
    Размер потока : 302 Мбайт (1%)
    Язык : Russian
    Default : Нет
    Forced : Нет

    Аудио #3
    Идентификатор : 4
    Формат : AC-3
    Формат/Информация : Audio Coding 3
    Расширение режима : CM (complete main)
    Параметр Endianness формата : Big
    Идентификатор кодека : A_AC3
    Продолжительность : 1 ч. 34 м.
    Вид битрейта : Постоянный
    Битрейт : 448 Кбит/сек
    Каналы : 6 каналов
    Расположение каналов : Front: L C R, Side: L R, LFE
    Частота : 48,0 КГц
    Битовая глубина : 16 бит
    Метод сжатия : С потерями
    Размер потока : 302 Мбайт (1%)
    Язык : Russian
    Default : Нет
    Forced : Нет

    Аудио #4
    Идентификатор : 5
    Формат : AC-3
    Формат/Информация : Audio Coding 3
    Расширение режима : CM (complete main)
    Параметр Endianness формата : Big
    Идентификатор кодека : A_AC3
    Продолжительность : 1 ч. 34 м.
    Вид битрейта : Постоянный
    Битрейт : 384 Кбит/сек
    Каналы : 6 каналов
    Расположение каналов : Front: L C R, Side: L R, LFE
    Частота : 48,0 КГц
    Битовая глубина : 16 бит
    Метод сжатия : С потерями
    Размер потока : 259 Мбайт (1%)
    Язык : Russian
    Default : Нет
    Forced : Нет

    Аудио #5
    Идентификатор : 6
    Формат : AC-3
    Формат/Информация : Audio Coding 3
    Расширение режима : CM (complete main)
    Параметр Endianness формата : Big
    Идентификатор кодека : A_AC3
    Продолжительность : 1 ч. 34 м.
    Вид битрейта : Постоянный
    Битрейт : 192 Кбит/сек
    Каналы : 2 канала
    Расположение каналов : Front: L R
    Частота : 48,0 КГц
    Битовая глубина : 16 бит
    Метод сжатия : С потерями
    Размер потока : 129 Мбайт (1%)
    Язык : Russian
    Default : Нет
    Forced : Нет

    Аудио #6
    Идентификатор : 7
    Формат : DTS
    Формат/Информация : Digital Theater Systems
    Профиль формата : MA / Core
    Идентификатор кодека : A_DTS
    Продолжительность : 1 ч. 34 м.
    Вид битрейта : Переменный
    Битрейт : 1561 Кбит/сек / 1510 Кбит/сек
    Каналы : 6 каналов
    Расположение каналов : Front: L C R, Side: L R, LFE
    Частота : 48,0 КГц
    Битовая глубина : 16 бит
    Метод сжатия : Без потерь / Lossy
    Язык : English
    Default : Нет
    Forced : Нет

    Текст #1
    Идентификатор : 8
    Формат : UTF-8
    Идентификатор кодека : S_TEXT/UTF8
    Идентификатор кодека/Информация : UTF-8 Plain Text
    Язык : Russian
    Default : Нет
    Forced : Нет

    Текст #2
    Идентификатор : 9
    Формат : UTF-8
    Идентификатор кодека : S_TEXT/UTF8
    Идентификатор кодека/Информация : UTF-8 Plain Text
    Язык : English
    Default : Нет
    Forced : Нет

    Меню
    00:00:00.000 : en:Chapter 1
    00:11:04.330 : en:Chapter 2
    00:18:03.082 : en:Chapter 3
    00:22:22.382 : en:Chapter 4
    00:30:13.895 : en:Chapter 5
    00:35:49.313 : en:Chapter 6
    00:38:51.245 : en:Chapter 7
    00:47:50.492 : en:Chapter 8
    00:50:29.026 : en:Chapter 9
    00:56:26.257 : en:Chapter 10
    01:03:15.124 : en:Chapter 11
    01:07:44.477 : en:Chapter 12
    01:11:27.533 : en:Chapter 13
    01:17:29.144 : en:Chapter 14
    01:23:10.986 : en:Chapter 15
    01:27:58.189 : en:Chapter 16


    Релиз группа NovaLan
    Автор сборки Sergei7721






    Релиз подготовил:


    Залил: Sergei7721
    Размер скачиваемого торрента: 21.11 GB (22662023560 Bytes)

    Бриллиантовый полицейский / Blue Streak (1999) BDRemux 1080p от NovaLan скачать через торрент бесплатно
    загрузка...
    Рейтинг →
     (голосов: 1, оценка 3/5, голосовать можно 1 раз )

    Другие торренты по теме:

  • Бриллиантовый полицейский / Blue Streak (1999) BDRip 720p торрент скачать бесплатно
  • Бриллиантовый полицейский / Blue Streak (1999) BDRip от HQCLUB торрент скачать бесплатно
  • Бриллиантовый полицейский / Blue Streak (1999) BDRip 1080p от denis 100 торрент скачать бесплатно
  • Бриллиантовый полицейский / Blue Streak (1999) BDRip 720p от New-Team торрент скачать бесплатно
  • Бриллиантовый полицейский / Blue Streak (1999) BDRip 1080p от NNNB скачать торрент бесплатно
  • Бриллиантовый полицейский / Blue Streak (1999) Blu-ray CEE 1080p | D | Лицензия скачать торрент бесплатно


    • Комментарии (0):

      Информация

      Информация

        Посетители, находящиеся в группе Гости, не могут оставлять комментарии в данной новости.

        ↓ Меню



        ↓ Опрос

        А Вы добавили сайт в закладки?
        Да
        Не


        Top 10 за неделю (Фильмы)