.
Авторизация | Регистрация
» » Тёщины блины (2013) DVDRip от New-Team | лицензия скачать через торрент бесплатно




    Тёщины блины (2013) DVDRip от New-Team | лицензия скачать через торрент бесплатно

    Опубликовал: Админ | Дата: 27-02-2015, 11:10 | Просмотров: 226



    Снималось в: Россия / Грин-фильм, Приор Продакшн
    Категория жанра: мелодрама
    Создали в: 2013
    Время просмотра: 4 x ~00:44:00

    Перевод текста: не требуется
    Субтитры подготовлены: нет
    Оригинальная аудиодорожка: русский

    Главный режиссер: Алексей Праздников

    Актеры: Наталия Солдатова, Александр Ратников, Яков Шамшин, Оксана Сташенко, Андрей Кошевой, Антон Юрьев

    Сюжет: Света и Дима живут в чудесном городке Блинове, на Золотом кольце. Им — около тридцати, у них — семилетний Санька и полугодовалая Леночка. У мамы Светы, Ольги Николаевны, пятидесятилетней одинокой красавицы, — артель производства керамики для туристов. Света работает там же — рисует приволжские орнаменты для чашек-плошек.
    Дима — талантливый повар. Но в очередной раз остался без работы: его кулинарные изыски и борьба с нарушениями качества и количества продуктов ко двору не приходятся. Характер у Димы легкий: он по-прежнему кормит ораву друзей блинами и мечтает о ресторане на берегу Волги. А Света устала от безденежья и нестабильности. И Ольга зятя не жалует: не такого мужа-романтика хотела она для своей дочки. Вот хоть Петька—одноклассник: юрист, на иномарке разъезжает…
    И вот, когда семейная лодка почти разбилась о быт, Света выигрывает в лотерею три миллиона! И… не говорит об этом мужу… Ольга одобряет: Молодец! Бросай его, с таким стартовым капиталом и без мужика не пропадешь!. Но Света делает неожиданный ход. Все выигранные деньги она… вкладывает в покупку помещения для ресторана. Петр, по Светиной просьбе, представляется владельцем бизнеса и приглашает Диму на работу шеф-поваром. Петр решает порадовать местное население и заезжих иностранных туристов высокой итальянской кухней и прочими фрикасе из бумбараса.



    Качество фильма: DVDRip (DVD9 R5)
    Тип видео: AVI

    Информация о видео: 720x400 (16:9), 25.000 fps, XViD ~ 1700 kbps avg, 0.236 bit/pixel
    Информация о звуке: 48 kHz, АС3 2 ch, 192 kbps, русский

    Раздача от:
    MediaInfo

    Общее
    Полное имя : Teshiny.bliny.2013.O.DVDRip_New-Team_by_avproh1.avi
    Формат : AVI
    Формат/Информация : Audio Video Interleave
    Размер файла : 592 Мбайт
    Продолжительность : 43 м.
    Общий поток : 1901 Кбит/сек
    Программа кодирования : VirtualDubMod 1.5.10.3 | www.virtualdub-fr.org || (build 2550/release)
    Библиотека кодирования : VirtualDubMod build 2550/release

    Видео
    Идентификатор : 0
    Формат : MPEG-4 Visual
    Профиль формата : Advanced Simple@L5
    Параметр BVOP формата : 1
    Параметр QPel формата : Нет
    Параметр GMC формата : Без точки перехода
    Параметр матрицы формата : Выборочная
    Идентификатор кодека : XVID
    Идентификатор кодека/Подсказка : XviD
    Продолжительность : 43 м.
    Битрейт : 1700 Кбит/сек
    Ширина : 720 пикселей
    Высота : 400 пикселей
    Соотношение сторон : 16:9
    Частота кадров : 25,000 кадров/сек
    Цветовое пространство : YUV
    Субдискретизация насыщенности : 4:2:0
    Битовая глубина : 8 бит
    Тип развёртки : Прогрессивная
    Метод сжатия : С потерями
    Бит/(Пиксели*Кадры) : 0.236
    Размер потока : 529 Мбайт (89%)
    Библиотека кодирования : XviD 73

    Аудио
    Идентификатор : 1
    Формат : AC-3
    Формат/Информация : Audio Coding 3
    Расширение режима : CM (complete main)
    Параметр Endianness формата : Big
    Идентификатор кодека : 2000
    Продолжительность : 43 м.
    Вид битрейта : Постоянный
    Битрейт : 192 Кбит/сек
    Каналы : 2 канала
    Расположение каналов : Front: L R
    Частота : 48,0 КГц
    Битовая глубина : 16 бит
    Метод сжатия : С потерями
    Размер потока : 59,8 Мбайт (10%)
    Выравнивание : Разделение по промежуткам
    Продолжительность промежутка : 40 мс. (1,00 видеокадр)
    Время предзагрузки промежутка : 500 мс.

    Скриншоты для ознакомления:



    Сравнения:

    http://alt.rutor.org/torrent/321813/

    http://screenshotcomparison.com/comparison/66418 - SATRip видео
    http://screenshotcomparison.com/comparison/66419 - SATRip звук

    http://alt.rutor.org/torrent/336487/

    http://screenshotcomparison.com/comparison/66420 - WEBDLRip видео
    http://screenshotcomparison.com/comparison/66421 - WEBDLRip звук

    Залил: avproh
    Размер скачиваемого торрента: 2.33 GB (2504611840 Bytes)

    Тёщины блины (2013) DVDRip от New-Team | лицензия скачать через торрент бесплатно
    загрузка...
    Рейтинг →
     (голосов: 1, оценка 4/5, голосовать можно 1 раз )

    Другие торренты по теме:

  • Тёщины блины (2013) DVDRip-AVC от New-Team | лицензия скачать через торрент бесплатно
  • Тёщины блины (2013) DVD9 R5 от New-Team | лицензия торрент скачать бесплатно


    • Комментарии (0):

      Информация

      Информация

        Посетители, находящиеся в группе Гости, не могут оставлять комментарии в данной новости.

        ↓ Меню



        ↓ Опрос

        А Вы добавили сайт в закладки?
        Да
        Не


        Top 10 за неделю (Фильмы)