.
Авторизация | Регистрация
Хочешь лучшие торренты? Добавь свой email!
Добавить
» » Волк с Уолл-стрит / The Wolf of Wall Street (2013) BDRemux 1080p от GORESEWAGE | DVO, VO торрент скачать бесплатно




    Волк с Уолл-стрит / The Wolf of Wall Street (2013) BDRemux 1080p от GORESEWAGE | DVO, VO торрент скачать бесплатно

    Опубликовал: Админ | Дата: 27-02-2015, 11:10 | Просмотров: 262



    Волк с Уолл-стрит / The Wolf of Wall Street

    Создали в: 2013
    Снималось в: США
    Категория жанра: драма, комедия, криминал, биография
    Время просмотра: 02:59:52
    Перевод текста 1: Двухголосый закадровый | Пираты
    Перевод текста 2: Одноголосый закадровый | Дмитрий Деньщиков (5 Плюх)
    Оригинальная аудиодорожка: English
    Субтитры: Russian (Full Notabenoid), English (Full, SDH), French (Full), Spanish (Full)
    Киностудия: Paramount Pictures (presents), Red Granite Pictures (presents), Appian Way, Sikelia Productions (as Sikelia), EMJAG Productions

    Главный режиссёр: Мартин Скорсезе / Martin Scorsese

    Актеры: Леонардо ДиКаприо, Джона Хилл, Марго Робби, Кайл Чандлер, Роб Райнер, П.Дж. Бирн, Джон Бернтал, Кристин Милиоти, Жан Дюжарден, Мэттью МакКонахи и др.

    Сюжет: Джордан Белфорт основал одну из крупнейших брокерских контор в 1987 году, но десять лет спустя был осужден за отмывание денег и ряд прочих финансовых преступлений. Он справился с алкогольной и наркотической зависимостью, выработанной за время махинаций на Уолл-стрит, написал две книги и теперь читает лекции о том, как достичь успеха.



    Sample

    Качество фильма: BDRemux 1080p (The.Wolf.Of.Wall.Street.2013.1080p.BluRay.AVC.DTS-HD.MA.5.1-PublicHD)
    Контейнер: MKV
    Информация о видео кодек: MPEG-4 AVC Video
    Информация о звуке кодек: DTS-HD MA / AC3
    Информация о видео: MPEG-4 AVC Video / 25046 kbps / 1920x1080p / 23,976 fps / 16:9 / High Profile 4.1
    Информация о звуке 1: Russian / AC3 / 5.1 / 48 kHz / 640 kbps / 16-bit | DVO Пираты
    Информация о звуке 2: Russian / AC3 / 2.0 / 48 kHz / 192 kbps / 16-bit | VO Дмитрий Деньщиков (5 Плюх)
    Информация о звуке 3: English / DTS-HD MA / 5.1 / 48 kHz / 3400 kbps / 24-bit | Original
    Информация о звуке 4: English / AC3 / 5.1 / 48 kHz / 640 kbps / 16-bit | Descriрtion
    Навигация по главам: да

    Screens

    MediaInfo
    C:/GORESEWAGE/The Wolf of Wall Street 2013 BDRemux 1080p GORESEWAGE.mkv
    General
    Unique ID : 252238800301844293703049705998804845098 (0xBDC36D0568586284B2274C47BEB4022A)
    Complete name : C:/GORESEWAGE/The Wolf of Wall Street 2013 BDRemux 1080p GORESEWAGE.mkv
    Format : Matroska
    Format version : Version 4 / Version 2
    File size : 36.8 GiB
    Duration : 2h 59mn
    Overall bit rate mode : Variable
    Overall bit rate : 29.3 Mbps
    Movie name : The Wolf of Wall Street 2013 BDRemux 1080p GORESEWAGE
    Encoded date : UTC 2014-03-15 20:27:31
    Writing application : mkvmerge v6.8.0 (;Theme for Great Cities;) 64bit built on Mar 2 2014 21:34:26
    Writing library : libebml v1.3.0 libmatroska v1.4.1
    Attachment : Yes
    Video #1
    ID : 1
    Format : AVC
    Format/Info : Advanced Video Codec
    Format profile : High@L4.1
    Format settings, CABAC : Yes
    Format settings, ReFrames : 4 frames
    Codec ID : V_MPEG4/ISO/AVC
    Duration : 2h 59mn
    Bit rate mode : Variable
    Maximum bit rate : 39.7 Mbps
    Width : 1 920 pixels
    Height : 1 080 pixels
    Display aspect ratio : 16:9
    Frame rate mode : Constant
    Frame rate : 23.976 fps
    Color space : YUV
    Chroma subsampling : 4:2:0
    Bit depth : 8 bits
    Scan type : Progressive
    Title : The Wolf of Wall Street 2013 BDRemux 1080p GORESEWAGE
    Language : English
    Default : Yes
    Forced : No
    Audio #2
    ID : 2
    Format : AC-3
    Format/Info : Audio Coding 3
    Mode extension : CM (complete main)
    Format settings, Endianness : Big
    Codec ID : A_AC3
    Duration : 2h 59mn
    Bit rate mode : Constant
    Bit rate : 640 Kbps
    Channel count : 6 channels
    Channel positions : Front: L C R, Side: L R, LFE
    Sampling rate : 48.0 KHz
    Bit depth : 16 bits
    Compression mode : Lossy
    Stream size : 823 MiB (2%)
    Title : DVO Пираты
    Language : Russian
    Default : Yes
    Forced : No
    Audio #3
    ID : 3
    Format : AC-3
    Format/Info : Audio Coding 3
    Mode extension : CM (complete main)
    Format settings, Endianness : Big
    Codec ID : A_AC3
    Duration : 2h 59mn
    Bit rate mode : Constant
    Bit rate : 192 Kbps
    Channel count : 2 channels
    Channel positions : Front: L R
    Sampling rate : 48.0 KHz
    Bit depth : 16 bits
    Compression mode : Lossy
    Stream size : 247 MiB (1%)
    Title : VO Дмитрий Деньщиков (5 Плюх)
    Language : Russian
    Default : No
    Forced : No
    Audio #4
    ID : 4
    Format : DTS
    Format/Info : Digital Theater Systems
    Format profile : MA / Core
    Mode : 16
    Format settings, Endianness : Big
    Codec ID : A_DTS
    Duration : 2h 59mn
    Bit rate mode : Variable
    Bit rate : Unknown / 1 509 Kbps
    Channel count : 6 channels
    Channel positions : Front: L C R, Side: L R, LFE
    Sampling rate : 48.0 KHz
    Bit depth : 24 bits
    Compression mode : Lossless / Lossy
    Title : Original
    Language : English
    Default : No
    Forced : No
    Audio #5
    ID : 5
    Format : AC-3
    Format/Info : Audio Coding 3
    Mode extension : CM (complete main)
    Format settings, Endianness : Big
    Codec ID : A_AC3
    Duration : 2h 59mn
    Bit rate mode : Constant
    Bit rate : 640 Kbps
    Channel count : 6 channels
    Channel positions : Front: L C R, Side: L R, LFE
    Sampling rate : 48.0 KHz
    Bit depth : 16 bits
    Compression mode : Lossy
    Stream size : 823 MiB (2%)
    Title : Descriрtion
    Language : English
    Default : No
    Forced : No
    Text #6
    ID : 6
    Format : UTF-8
    Codec ID : S_TEXT/UTF8
    Codec ID/Info : UTF-8 Plain Text
    Title : Full Notabenoid
    Language : Russian
    Default : No
    Forced : No
    Text #7
    ID : 7
    Format : UTF-8
    Codec ID : S_TEXT/UTF8
    Codec ID/Info : UTF-8 Plain Text
    Title : Full
    Language : English
    Default : No
    Forced : No
    Text #8
    ID : 8
    Format : UTF-8
    Codec ID : S_TEXT/UTF8
    Codec ID/Info : UTF-8 Plain Text
    Title : SDH
    Language : English
    Default : No
    Forced : No
    Text #9
    ID : 9
    Format : PGS
    Muxing mode : zlib
    Codec ID : S_HDMV/PGS
    Codec ID/Info : The same subtitle format used on BDs/HD-DVDs
    Title : Full
    Language : French
    Default : No
    Forced : No
    Text #10
    ID : 10
    Format : PGS
    Muxing mode : zlib
    Codec ID : S_HDMV/PGS
    Codec ID/Info : The same subtitle format used on BDs/HD-DVDs
    Title : Full
    Language : Spanish
    Default : No
    Forced : No
    Menu
    00:00:00.000 : en:G01
    00:07:55.934 : en:G02
    00:14:17.857 : en:G03
    00:21:31.415 : en:G04
    00:32:08.093 : en:G05
    00:40:14.495 : en:G06
    00:48:33.577 : en:G07
    00:55:21.777 : en:G08
    01:01:56.046 : en:G09
    01:07:00.475 : en:G10
    01:11:28.910 : en:G11
    01:19:49.868 : en:G12
    01:29:06.883 : en:G13
    01:37:47.403 : en:G14
    01:45:11.931 : en:G15
    01:54:39.998 : en:G16
    02:03:20.184 : en:G17
    02:07:28.015 : en:G18
    02:17:12.850 : en:G19
    02:25:25.467 : en:G20
    02:32:08.619 : en:G21
    02:36:38.723 : en:G22
    02:44:19.266 : en:G23
    02:53:04.291 : en:G24

    AddInfo

    * За дорогу №1 thx St1kn0r.
    * За сабы №1 thx Notabenoid.

    * Русские сабы и дорога №2 содержат ненормативную лексику!

    Размер скачиваемого торрента: 36.76 GB (39473598670 Bytes)

    Волк с Уолл-стрит / The Wolf of Wall Street (2013) BDRemux 1080p от GORESEWAGE | DVO, VO торрент скачать бесплатно
    загрузка...
    Рейтинг →
     (голосов: 1, оценка 5/5, голосовать можно 1 раз )

    Другие торренты по теме:

  • Волк с Уолл-стрит / The Wolf of Wall Street (2013) DVDScr | Звук с TS скачать через торрент бесплатно
  • Волк с Уолл-стрит / The Wolf of Wall Street (2013) HD 1080p | L1 | Трейлер
  • Волк с Уолл-стрит
  • Волк с Уолл-стрит / The Wolf of Wall Street (2013) DVDScr-AVC | iPhone скачать через торрент бесплатно
  • Волк с Уолл-стрит / The Wolf of Wall Street (2013) DVDScr | L1 скачать через торрент бесплатно
  • VA - Волк с Уолл-стрит / The Wolf of Wall Street - Soundtrack (2013) MP3 скачать через торрент бесплатно
  • Волк с Уолл-стрит / The Wolf of Wall Street (2013) DVDScr | P2 скачать через торрент бесплатно
  • Волк с Уолл-стрит / The Wolf of Wall Street (2013) DVDScr | Звук c TS скачать через торрент бесплатно


    • Комментарии (0):

      Информация

      Информация

        Посетители, находящиеся в группе Гости, не могут оставлять комментарии в данной новости.

        ↓ Меню



        ↓ Опрос

        А Вы добавили сайт в закладки?
        Да
        Не


        Top 10 за месяц (Фильмы)