.
Авторизация | Регистрация
Хочешь лучшие торренты? Добавь свой email!
Добавить
» » Дикость 2 / Дикие штучки 2 / Wild Things 2 (2004) DVD9 | P торрент скачать бесплатно




    Дикость 2 / Дикие штучки 2 / Wild Things 2 (2004) DVD9 | P торрент скачать бесплатно

    Опубликовал: Админ | Дата: 27-02-2015, 11:10 | Просмотров: 282



    Детально о кино
    Русское название: Дикость 2 / Дикие штучки 2
    Русское название в мировом прокате: Wild Things
    Создали в: 2004
    Категория жанра: Триллер, криминал, драма, детектив, эротика
    Главный режиссер: Джек Перес
    Актеры: Сьюзэн Уорд, Лейла Арсиери, Кэйти Стюарт, Бретт Гилберт, Майкл Чиффо, Линден Эшби, Джо Майкл Берк, Айзайя Вашингтон, Кимберли Аткинсон

    Сюжет фильма:
    17-ти летняя школьница Бритни готовится вступить в права наследства после смерти своего отчима, но в последний момент происходит непредвиденное: ее одноклассница Майя внезапно предоставляет неопровержимые доказательства того, что законной наследницей является она! А речь идет о миллионах долларов! Столь неправдоподобный поворот событий привлекает внимание страховой компании, и та присылает следователя разобраться в этом странном деле. И точно, вскоре перед героем начинают проступать контуры гениального преступного сговора хитрых девиц. Вот только, поддавшись сексуальным чарам порочных юных аферисток, детектив вступает в игру по их правилам, чем ставит на карту не только свою карьеру, но и саму жизнь... У хорошей аферы всегда есть двойное дно. У гениальной - тройное!



    Снималось в: США
    Киностудия: Destination Films, Mandalay Pictures, Magic Hour Pictures
    Время просмотра: 01:30:56
    Перевод текста: Профессиональный многоголосый (закадровый)

    Файл
    Кодек для видео: MPEG2
    Качество фильма: DVD-9
    Информация о видео: PAL, 720x576 (16:9), 9800 Кбит/с, VBR, 25 кадр/с
    Информация о звуке #1: Русский, Dolby AC3, 48000 Гц, 448 Кбит/с, 6 каналов (5.1)
    Информация о звуке #2: Английский, Dolby AC3, 48000 Гц, 448 Кбит/с, 6 каналов (5.1)
    Субтитры: Русские (SoftSub)

    MediaInfo

    Общее
    Полное имя : VTS_01_1.VOB
    Формат : MPEG-PS
    Размер файла : 1024 Мбайт
    Продолжительность : 17 м.
    Режим общего битрейта : Переменный
    Общий поток : 8358 Кбит/сек

    Видео
    Идентификатор : 224 (0xE0)
    Формат : MPEG Video
    Версия формата : Version 2
    Профиль формата : Main@Main
    Параметр BVOP формата : Да
    Параметр матрицы формата : Выборочная
    Параметр GOP формата : M=3, N=12
    Продолжительность : 17 м.
    Вид битрейта : Переменный
    Битрейт : 7296 Кбит/сек
    Максимальный битрейт : 9800 Кбит/сек
    Ширина : 720 пикселей
    Высота : 576 пикселей
    Соотношение сторон : 16:9
    Частота кадров : 25,000 кадров/сек
    Стандарт вещания : PAL
    Цветовое пространство : YUV
    Субдискретизация насыщенности : 4:2:0
    Битовая глубина : 8 бит
    Тип развёртки : Чересстрочная
    Порядок развёртки : Верхнее поле первое
    Метод сжатия : С потерями
    Бит/(Пиксели*Кадры) : 0.704
    Размер потока : 894 Мбайт (87%)

    Аудио #1
    Идентификатор : 189 (0xBD)-128 (0x80)
    Формат : AC-3
    Формат/Информация : Audio Coding 3
    Расширение режима : CM (complete main)
    Параметр Endianness формата : Big
    Режим смешивания : DVD-Video
    Продолжительность : 17 м.
    Вид битрейта : Постоянный
    Битрейт : 448 Кбит/сек
    Каналы : 6 каналов
    Расположение каналов : Front: L C R, Side: L R, LFE
    Частота : 48,0 КГц
    Битовая глубина : 16 бит
    Метод сжатия : С потерями
    Размер потока : 54,9 Мбайт (5%)

    Аудио #2
    Идентификатор : 189 (0xBD)-129 (0x81)
    Формат : AC-3
    Формат/Информация : Audio Coding 3
    Расширение режима : CM (complete main)
    Параметр Endianness формата : Big
    Режим смешивания : DVD-Video
    Продолжительность : 17 м.
    Вид битрейта : Постоянный
    Битрейт : 448 Кбит/сек
    Каналы : 6 каналов
    Расположение каналов : Front: L C R, Side: L R, LFE
    Частота : 48,0 КГц
    Битовая глубина : 16 бит
    Метод сжатия : С потерями
    Размер потока : 54,9 Мбайт (5%)

    Меню
    Скриншоты для ознакомления

    Залил: ivandubskoj
    Размер скачиваемого торрента: 5.20 GB (5587380224 Bytes)

    Дикость 2 / Дикие штучки 2 / Wild Things 2 (2004) DVD9 | P торрент скачать бесплатно
    загрузка...
    Рейтинг →
     (голосов: 1, оценка 3/5, голосовать можно 1 раз )

    Другие торренты по теме:

  • Дикость 2 / Дикие штучки 2 / Wild Things 2 (2004) DVDRip от ivandubskoj | P, P
  • Дикость 2 / Wild Things 2 (2004) HDRip от Scarabey | P2


    • Комментарии (0):

      Информация

      Информация

        Посетители, находящиеся в группе Гости, не могут оставлять комментарии в данной новости.

        ↓ Меню



        ↓ Опрос

        А Вы добавили сайт в закладки?
        Да
        Не


        Top 10 за месяц (Фильмы)