.
Авторизация | Регистрация
Хочешь лучшие торренты? Добавь свой email!
Добавить
» » Открытый простор / Open Range (2003) BDRip 1080p скачать через торрент бесплатно




    Открытый простор / Open Range (2003) BDRip 1080p скачать через торрент бесплатно

    Опубликовал: Админ | Дата: 27-02-2015, 11:10 | Просмотров: 262



    Детально о кино
    Русское название: Открытый простор
    Русское название в мировом прокате: Open Range
    Создали в: 2003
    Категория жанра: вестерн, мелодрама, драма
    Главный режиссер: Кевин Костнер
    Актеры: Роберт Дюваль, Кевин Костнер, Аннетт Бенинг, Майкл Гэмбон, Майкл Джетер, Диего Луна, Джеймс Руссо, Абрахам Бенруби, Дин МакДермотт, Ким Коутс

    Сюжет фильма: Заканчивалась эпоха героев Дикого Запада, их стиль жизни уходил в прошлое... Кочуя по обширным прериям, четверо друзей ведут жизнь, основанную на уставе чести, но судьба сделает неожиданный поворот в небольшом городке, где, столкнувшись с бесчинствами шерифа, эти отважные мужчины будут до конца защищать свою любовь, свободу и образ жизни.



    Снималось в: США
    Время просмотра: 02:18:53
    Перевод текста: Профессиональный (полное дублирование)

    Файл
    Качество фильма: BDRip 1080p
    Тип видео: MKV
    Информация о видео: MPEG4/AVC, 1920x816 (2.35:1), 9700 Кбит/сек, 23,976 кадра/сек
    Информация о звуке 1: AC3, 6 каналов, 48.0 КГц, 640 Кбит/сек | Dub
    Информация о звуке 2: AC3, 6 каналов, 48.0 КГц, 448 Кбит/сек | MVO
    Информация о звуке 3: AC3, 6 каналов, 48.0 КГц, 640 Кбит/сек | Eng
    Субтитры: Русские, английские
    Навигация по главам: Есть
    Информация о видеоряд: CHD

    MediaInfo:
    Общее
    Уникальный идентификатор : 248265203812362963106914263152010577219 (0xBAC62396A0F8A84BAD4AFA063419C543)
    Полное имя : Open Range.(2003) BDRip 1080p.mkv
    Формат : Matroska
    Версия формата : Version 2
    Размер файла : 11,1 Гбайт
    Продолжительность : 2 ч. 18 м.
    Общий поток : 11,4 Мбит/сек
    Дата кодирования : UTC 2014-03-16 20:57:46
    Программа кодирования : mkvmerge v5.8.0 (;No Sleep / Pillow;) built on Sep 2 2012 15:37:04
    Библиотека кодирования : libebml v1.2.3 libmatroska v1.3.0

    Видео
    Идентификатор : 1
    Формат : AVC
    Формат/Информация : Advanced Video Codec
    Профиль формата : High@L4.1
    Параметр CABAC формата : Да
    Параметр ReFrames формата : 4 кадра
    Идентификатор кодека : V_MPEG4/ISO/AVC
    Продолжительность : 2 ч. 18 м.
    Битрейт : 9700 Кбит/сек
    Ширина : 1920 пикселей
    Высота : 816 пикселей
    Соотношение сторон : 2,35:1
    Режим частоты кадров : Постоянный
    Частота кадров : 23,976 кадра/сек
    Цветовое пространство : YUV
    Субдискретизация насыщенности : 4:2:0
    Битовая глубина : 8 бит
    Тип развёртки : Прогрессивная
    Бит/(Пиксели*Кадры) : 0.258
    Размер потока : 9,19 Гбайт (83%)
    Заголовок : 2003
    Библиотека кодирования : x264 core 67 r1153M 7b6ce6a
    Настройки программы : cabac=1 / ref=4 / deblock=1:-3:-3 / analyse=0x3:0x113 / me=umh / subme=9 / psy_rd=1.2:0.3 / mixed_ref=1 / me_range=26 / chroma_me=1 / trellis=1 / 8x8dct=1 / cqm=2 / deadzone=21,11 / chroma_qp_offset=-4 / threads=6 / nr=0 / decimate=1 / mbaff=0 / bframes=3 / b_pyramid=1 / b_adapt=1 / b_bias=0 / direct=3 / wpredb=1 / keyint=250 / keyint_min=25 / scenecut=40 / rc=2pass / bitrate=9700 / ratetol=1.0 / qcomp=0.60 / qpmin=10 / qpmax=51 / qpstep=4 / cplxblur=20.0 / qblur=0.5 / ip_ratio=1.40 / pb_ratio=1.30 / aq=1:1.00
    Язык : English
    Default : Да
    Forced : Нет

    Аудио #1
    Идентификатор : 2
    Формат : AC-3
    Формат/Информация : Audio Coding 3
    Расширение режима : CM (complete main)
    Параметр Endianness формата : Big
    Идентификатор кодека : A_AC3
    Продолжительность : 2 ч. 18 м.
    Вид битрейта : Постоянный
    Битрейт : 640 Кбит/сек
    Каналы : 6 каналов
    Расположение каналов : Front: L C R, Side: L R, LFE
    Частота : 48,0 КГц
    Битовая глубина : 16 бит
    Метод сжатия : С потерями
    Размер потока : 636 Мбайт (6%)
    Заголовок : Dub | AC3 | 640 Kbps
    Язык : Russian
    Default : Да
    Forced : Нет

    Аудио #2
    Идентификатор : 3
    Формат : AC-3
    Формат/Информация : Audio Coding 3
    Расширение режима : CM (complete main)
    Параметр Endianness формата : Big
    Идентификатор кодека : A_AC3
    Продолжительность : 2 ч. 18 м.
    Вид битрейта : Постоянный
    Битрейт : 448 Кбит/сек
    Каналы : 6 каналов
    Расположение каналов : Front: L C R, Side: L R, LFE
    Частота : 48,0 КГц
    Битовая глубина : 16 бит
    Метод сжатия : С потерями
    Размер потока : 445 Мбайт (4%)
    Заголовок : MVO | AC3 | 448 Kbps
    Язык : Russian
    Default : Нет
    Forced : Нет

    Аудио #3
    Идентификатор : 4
    Формат : AC-3
    Формат/Информация : Audio Coding 3
    Расширение режима : CM (complete main)
    Параметр Endianness формата : Big
    Идентификатор кодека : A_AC3
    Продолжительность : 2 ч. 18 м.
    Вид битрейта : Постоянный
    Битрейт : 640 Кбит/сек
    Каналы : 6 каналов
    Расположение каналов : Front: L C R, Side: L R, LFE
    Частота : 48,0 КГц
    Битовая глубина : 16 бит
    Метод сжатия : С потерями
    Размер потока : 636 Мбайт (6%)
    Заголовок : AC3 | 640 Kbps
    Язык : English
    Default : Нет
    Forced : Нет

    Текст #1
    Идентификатор : 5
    Формат : UTF-8
    Идентификатор кодека : S_TEXT/UTF8
    Идентификатор кодека/Информация : UTF-8 Plain Text
    Заголовок : RUS
    Язык : Russian
    Default : Нет
    Forced : Нет

    Текст #2
    Идентификатор : 6
    Формат : UTF-8
    Идентификатор кодека : S_TEXT/UTF8
    Идентификатор кодека/Информация : UTF-8 Plain Text
    Заголовок : ENG
    Язык : English
    Default : Нет
    Forced : Нет

    Меню
    00:00:00.000 : en:Opening Credits/a Rainy Campsite
    00:07:54.182 : en:Mose Is Sent to Town
    00:16:02.543 : en:Searching for Mose
    00:26:34.009 : en:Doc Barlow;s
    00:33:56.366 : en:A Midnight Raid
    00:41:22.313 : en:Tending to Button
    00:53:03.471 : en:A Storm Is Brewin;
    01:01:53.083 : en:A Warm Cup of Tea
    01:11:01.090 : en:Showdown at the Saloon
    01:21:02.314 : en:A Visit with the Serriff
    01:30:26.462 : en:Charley and Sue
    01:39:41.641 : en:The Town Prepares
    01:50:17.860 : en:Charely Lays Out His Plan
    01:59:32.206 : en:The Gunfight Begins
    02:07:54.832 : en:The Town Helps Out
    02:14:14.503 : en:Charley Asks to See Sue

    Скриншоты для ознакомления:


    Релиз подготовил:
    Размер скачиваемого торрента: 11.09 GB (11907672785 Bytes)

    Открытый простор / Open Range (2003) BDRip 1080p скачать через торрент бесплатно
    загрузка...
    Рейтинг →
     (голосов: 1, оценка 5/5, голосовать можно 1 раз )

    Другие торренты по теме:

  • OST - Открытый простор / Open Range (2003) MP3
  • Открытый простор / Open Range (2003) HDRip от Scarabey | P
  • Открытый простор / Open Range (2003) HDRip-AVC от WazZzup | D
  • Открытый простор / Open Range (2003) HDRip-AVC | iPhone
  • Открытый простор / Open Range (2003) DVDRip | D, P, A скачать через торрент бесплатно


    • Комментарии (0):

      Информация

      Информация

        Посетители, находящиеся в группе Гости, не могут оставлять комментарии в данной новости.

        ↓ Меню



        ↓ Опрос

        А Вы добавили сайт в закладки?
        Да
        Не


        Top 10 за месяц (Фильмы)