.
Авторизация | Регистрация
» » Замороженные солдаты / Ice Soldiers (2013) BDRemux 1080p от NovaLan скачать через торрент бесплатно




    Замороженные солдаты / Ice Soldiers (2013) BDRemux 1080p от NovaLan скачать через торрент бесплатно

    Опубликовал: Админ | Дата: 27-02-2015, 11:10 | Просмотров: 221



    Русское название: Замороженные солдаты
    Русское название в мировом прокате: Ice Soldiers
    Создали в: 2013
    Категория жанра: Фантастика, боевик
    Главный режиссер: Стурла Гуннарссон
    Актеры: Доминик Пёрселл, Адам Бич, Майкл Айронсайд, Гэбриел Хоган, Бенц Антуан, Рауль Банеджа, Нику Бранзеа, Грег Стивен Браун
    Сюжет фильма:
    Ученый в снегах Канады обнаруживает три тела русских военных, с генетическими изменениями. Он приводит их в чувство и зря - он разморозил смертельную опасность для общества.


    Снималось в: Канада, Bunk 11 Pictures, TAJJ Media, Hideaway Pictures
    Время просмотра: 01:35:21
    Перевод текста: Любительский одноголосый (VANO)

    Кодек для видео: H.264
    Качество фильма: Blu-Ray Remux 1080p
    Информация о видео: MPEG-4 AVC, 24.7 Мбит/с, 1920x1080, 23.976 кадр/с
    Информация о звуке: Русский (AC3, 2 ch, 192 Кбит/с), английский (DTS-HD MA, 6 ch, 1561 Кбит/с)
    Субтитры: Английские

    Инфо-файл

    Полное имя : E:Раздачи_EIce.Soldiers.2013.BDRemux.1080p.NovaLan.mkv
    Формат : Matroska
    Версия формата : Version 4 / Version 2
    Размер файла : 18,0 Гбайт
    Продолжительность : 1 ч. 35 м.
    Режим общего битрейта : Переменный
    Общий поток : 27,0 Мбит/сек
    Название фильма : Ice Soldiers 2013 - NovaLan
    Дата кодирования : UTC 2014-03-16 18:32:18
    Программа кодирования : mkvmerge v6.8.0 (;Theme for Great Cities;) 64bit built on Mar 2 2014 21:34:26
    Библиотека кодирования : libebml v1.3.0 libmatroska v1.4.1

    Видео
    Идентификатор : 1
    Формат : AVC
    Формат/Информация : Advanced Video Codec
    Профиль формата : High@L4.1
    Параметр CABAC формата : Да
    Параметр ReFrames формата : 2 кадра
    Идентификатор кодека : V_MPEG4/ISO/AVC
    Продолжительность : 1 ч. 35 м.
    Вид битрейта : Переменный
    Битрейт : 24,7 Мбит/сек
    Ширина : 1920 пикселей
    Высота : 1080 пикселей
    Соотношение сторон : 16:9
    Частота кадров : 23,976 кадра/сек
    Цветовое пространство : YUV
    Субдискретизация насыщенности : 4:2:0
    Битовая глубина : 8 бит
    Тип развёртки : Прогрессивная
    Бит/(Пиксели*Кадры) : 0.498
    Размер потока : 16,5 Гбайт (92%)
    Заголовок : Ice Soldiers 2013 - NovaLan
    Default : Да
    Forced : Нет

    Аудио #1
    Идентификатор : 2
    Формат : AC-3
    Формат/Информация : Audio Coding 3
    Расширение режима : CM (complete main)
    Параметр Endianness формата : Big
    Идентификатор кодека : A_AC3
    Продолжительность : 1 ч. 35 м.
    Вид битрейта : Постоянный
    Битрейт : 192 Кбит/сек
    Каналы : 2 канала
    Расположение каналов : Front: L R
    Частота : 48,0 КГц
    Битовая глубина : 16 бит
    Метод сжатия : С потерями
    Размер потока : 131 Мбайт (1%)
    Язык : Russian
    Default : Да
    Forced : Нет

    Аудио #2
    Идентификатор : 3
    Формат : DTS
    Формат/Информация : Digital Theater Systems
    Профиль формата : MA / Core
    Идентификатор кодека : A_DTS
    Продолжительность : 1 ч. 35 м.
    Вид битрейта : Переменный
    Битрейт : 1561 Кбит/сек / 1510 Кбит/сек
    Каналы : 6 каналов
    Расположение каналов : Front: L C R, Side: L R, LFE
    Частота : 48,0 КГц
    Битовая глубина : 24 бит
    Метод сжатия : Без потерь / Lossy
    Язык : English
    Default : Нет
    Forced : Нет

    Текст #1
    Идентификатор : 4
    Формат : PGS
    Режим смешивания : zlib
    Идентификатор кодека : S_HDMV/PGS
    Идентификатор кодека/Информация : The same subtitle format used on BDs/HD-DVDs
    Язык : English
    Default : Нет
    Forced : Нет

    Текст #2
    Идентификатор : 5
    Формат : PGS
    Режим смешивания : zlib
    Идентификатор кодека : S_HDMV/PGS
    Идентификатор кодека/Информация : The same subtitle format used on BDs/HD-DVDs
    Язык : English
    Default : Нет
    Forced : Нет

    Меню
    00:00:00.000 : en:Chapter 1
    00:05:13.062 : en:Chapter 2
    00:11:34.360 : en:Chapter 3
    00:17:37.681 : en:Chapter 4
    00:22:23.967 : en:Chapter 5
    00:28:18.446 : en:Chapter 6
    00:32:59.811 : en:Chapter 7
    00:37:26.827 : en:Chapter 8
    00:43:40.826 : en:Chapter 9
    00:51:37.302 : en:Chapter 10
    00:56:01.399 : en:Chapter 11
    01:00:32.086 : en:Chapter 12
    01:06:59.849 : en:Chapter 13
    01:12:31.263 : en:Chapter 14
    01:17:50.582 : en:Chapter 15
    01:22:04.127 : en:Chapter 16


    Релиз группа NovaLan
    Автор сборки Sergei7721






    Релиз подготовил:


    Залил: Sergei7721
    Размер скачиваемого торрента: 18.01 GB (19338434363 Bytes)

    Замороженные солдаты / Ice Soldiers (2013) BDRemux 1080p от NovaLan скачать через торрент бесплатно
    загрузка...
    Рейтинг →
     (голосов: 1, оценка 3/5, голосовать можно 1 раз )

    Другие торренты по теме:

  • Замороженные солдаты / Ice Soldiers (2013) BDRip 720p от CINEMANIA | L1 скачать через торрент бесплатно
  • Замороженные солдаты / Ice Soldiers (2013) BDRip 1080p от CINEMANIA | L1 скачать через торрент бесплатно
  • Замороженные солдаты / Ice Soldiers (2013) BDRip 720p от potroks | L1 скачать через торрент бесплатно
  • Замороженные солдаты / Ice Soldiers (2013) BDRip-AVC от potroks | L1 скачать через торрент бесплатно
  • Замороженные солдаты / Ice Soldiers (2013) HDRip | L1 скачать через торрент бесплатно
  • Замороженные солдаты / Ice Soldiers (2013) HDRip от Torrange | L1 торрент скачать бесплатно


    • Комментарии (0):

      Информация

      Информация

        Посетители, находящиеся в группе Гости, не могут оставлять комментарии в данной новости.

        ↓ Меню



        ↓ Опрос

        А Вы добавили сайт в закладки?
        Да
        Не


        Top 10 за неделю (Фильмы)