.
Авторизация | Регистрация
» » Анжелика: Коллекция / Angelique: Collection (1964-1968) Blu-ray 1080i | 5-Disc Edition скачать через торрент бесплатно




    Анжелика: Коллекция / Angelique: Collection (1964-1968) Blu-ray 1080i | 5-Disc Edition скачать через торрент бесплатно

    Опубликовал: Админ | Дата: 27-02-2015, 11:10 | Просмотров: 488



    Русское название: Анжелика: Коллекция
    Русское название в мировом прокате: Angelique: Collection
    Создали в: 1964-1968
    Категория жанра: Мелодрама, приключения, история, экранизация
    Снималось в: Франция, Италия, Германия (ФРГ), Тунис / CICC, Films Borderie, Fono Roma, Franco London Films, Francos Films
    Главный режиссер: Бернар Бордери
    Актеры: Мишель Мерсье, Робер Оссейн, Жан Рошфор, Клод Жиро, Джулиано Джемма, Чарльз Ренье, Жак Тожа, Мадлен ЛеБо, Жан Топар, Бернард Уорингер, Жан-Луи Трентиньян, Клер Морье, Эрнст Шрёдер, Сами Фрей, Эстелла Блэйн, Фред Уильямс, Паскуале Мартино, Рене Лефевр, Роже Пиго, Кристиан Роуд, Этторе Манни, Бруно Дитрих, Зигхардт Рупп, Польдо Бенданди, Ренато Де Кармине, Жан-Клод Паскаль, Жак Санти, Хельмут Шнайдер, Эрно Криза

    Сюжет фильма: Если говорить о фильмах о любви, лучших, любимых, безумных, которыми хочется поделиться, то первое, что, без сомнений, многим придет на ум, это серия фильмов о приключениях прекрасной Анжелики - героини романов Анн и Сержа Голон. Эта чувственная история любви, полная страсти, непреодолимых препятствий и роковых потерь. Это потрясающе красивое произведение, пронизанное атмосферой эпохи старой Франции - эпохи старых замков и сияющих дворцов, галантных кавалеров и дам в шикарных платьях, придворных интриг и блеском Версаля. Это век безрассудных женщин и властных мужчин... Фильм богат безумно красивыми костюмами, в основном память запечатлела знаменитые наряды Анжелики. Ни в каком другом историческом костюмированном фильме я не встречала такого разнообразия прекрасных изысканных туалетов и в таком количестве.

    Знаете ли вы, что...

    • В жизни Мерсье — брюнетка. Для роли было изготовлено несколько десятков белокурых париков.
    • Анжелику могла бы сыграть Бриджитт Бардо, но она в тот момент была занята на съёмках другого фильма.
    • Премьера фильма состоялась в кабаре Мулен Руж. Знаменитая Коко Шанель, приглашённая на показ, аплодировала стоя.
    • Фильм занимает 31-е место по посещаемости среди зарубежных лент в советском кинопрокате.
    • Съёмки картины проходили на студии Чинечитта в Риме, а также в замках и поместьях Франции: замок Танле (департамент Йонна, Бургундия) — декор замка графа Жоффрея де Пейрака; замок Marigny-le-Cahou?t (Кот-д`Ор) — замок барона Сансе де Монтелу; замок Esclimont (ch?teau d`Esclimont) (Ивелин) — замок маркиза де Плесси-Белльера; аббатство де Фонтене (Кот-д`Ор, Мармань), — монастырь в Пуату; Версаль.

    • Джулиано Джемма, сыгравший Николя, в юности работал пожарным в Риме, его военная специальность — сапёр.
    • Фильм демонстрировался в советском кинопрокате под названием Анжелика в гневе.

    • Фильм занимает 33-е место по посещаемости среди зарубежных лент в советском кинопрокате.
    • Съёмки картины проходили в Версале, в замках и поместьях Франции, в частности, в замке Esclimont в Ивелин — замок маркиза де Плесси-Белльера.

    • Фильм Неукротимая Анжелика, объединённый со следующей серией Анжелика и султан, демонстрировался в советском кинопрокате в 1987 году под названием Неукротимая маркиза.
    • Фильм был снят почти полностью в Италии, в основном на Сардинии. Сцены на рынке рабов сняты в городе Сиди-Бу-Саид (Тунис).

    • В съемках фильма приняли участие страны: Италия, Франция, ФРГ, Тунис.
    • Французскую съемочную группу Анжелики и султана принимал сам первый президент Туниса Хабиб Бургиба, а роль султана исполнил известный тунисский актер Али Бен Айед.
    • Именно в Мекнесе была похищена красавица Анжелика в романе Анжелика и султан.
    • Многие сцены фильма сняты в Тунисе, например, в городе Сиди-Бу-Саид, в частности во дворце барона Рудольфа д`Эрланже, вокруг Рибата в городе Монастир, в амфитеатре города Эль-Джем, в заливе Ла-Марса, и т. д.

    Анжелика, маркиза ангелов / Angelique, marquise des anges (1964)


    Сюжет фильма: Анжелика, необыкновенно красивая бедная аристократка вынуждена выйти замуж за Жоффрея де Пейрака. Несмотря на его внешность она со временем полюбила его. Влюбленные живут счастливо в своем замке, пока однажды к ним не приезжает король. Восхищенный красотой Анжелики Людовик XIV хочет сделать ее своей наложницей…

    Скриншоты для ознакомления:
    Инфо-файл:
    DISC INFO:

    Disc Title: 1_ANGELIQUE_MARQUISE_DES_ANGES_BD
    Disc Size: 25 124 690 432 bytes
    Protection: AACS
    BD-Java: Yes
    BDInfo: 0.5.6

    PLAYLIST REPORT:

    Name: 00002.MPLS
    Length: 1:51:57 (h : m : s)
    Size: 25 028 874 240 bytes
    Total Bitrate: 29.81 Mbps

    VIDEO:

    Codec Bitrate Deion
    ----- ------- -----------
    MPEG-4 AVC Video 23500 kbps 1080i / 25 fps / 16:9 / High Profile 4.1

    AUDIO:

    Codec Language Bitrate Deion
    ----- -------- ------- -----------
    DTS-HD Master Audio French 1895 kbps 5.1 / 48 kHz / 1895 kbps / 16-bit (DTS Core: 5.1 / 48 kHz / 1509 kbps / 16-bit)
    DTS-HD Master Audio Russian 1905 kbps 5.1 / 48 kHz / 1905 kbps / 16-bit (DTS Core: 5.1 / 48 kHz / 1509 kbps / 16-bit)
    Dolby Digital Audio Russian 192 kbps 2.0 / 48 kHz / 192 kbps / DN -4dB
    Dolby Digital Audio Russian 192 kbps 2.0 / 48 kHz / 192 kbps / DN -4dB
    Dolby Digital Audio Ukrainian 192 kbps 2.0 / 48 kHz / 192 kbps / DN -4dB

    SUBTITLES:

    Codec Language Bitrate Deion
    ----- -------- ------- -----------
    Presentation Graphics Russian 40.244 kbps

    FILES:

    Name Time In Length Size Total Bitrate
    ---- ------- ------ ---- -------------
    00002.M2TS 0:00:00.000 1:51:57.600 25 028 874 240 29 807

    Файлы:
    Качество фильма: Blu-ray 1080i
    Информация о видео: MPEG-4 AVC, 23500 Кбит/с, 1920x1080, 25.000 кадр/с
    Информация о звуке #1: Французский (DTS-HD MA, 6 ch, 1895 Кбит/с)
    Информация о звуке #2: Русский (DTS-HD MA, 6 ch, 1905 Кбит/с) / Профессиональный одноголосый (В.Штейн)
    Информация о звуке #3: Русский (AC3, 2 ch, 192 Кбит/с) / Дублированный (Советский Дубляж)
    Информация о звуке #4: Русский (AC3, 2 ch, 192 Кбит/с) / Профессиональный многоголосый (НТВ)
    Информация о звуке #5: Украинский (AC3, 2 ch, 192 Кбит/с) / Профессиональный двухголосый (1 1)
    Субтитры: Русские
    Время просмотра: 01:51:57



    Великолепная Анжелика / Merveilleuse Angelique (1965)


    Сюжет фильма: После того как ее мужа сжигают на костре, Анжелика находит убежище у разбойников, глава которых - друг ее детства Николя. Во время нападения другой банды, Николя вынужден пожертвовать собой, чтобы позволить Анжелике бежать. Судьба вновь благосклонна к ней - Анжелике удается выйти замуж за маркиза де Плесси-Бельера. Она решает проникнуть в Версаль и отомстить королю - убийце мужа...

    Скриншоты для ознакомления:
    Инфо-файл:
    DISC INFO:

    Disc Title: 2_MERVEILLEUSE_ANGELIQUE_BD
    Disc Size: 25 246 840 960 bytes
    Protection: AACS
    BD-Java: Yes
    BDInfo: 0.5.6

    PLAYLIST REPORT:

    Name: 00003.MPLS
    Length: 1:40:04 (h : m : s)
    Size: 25 136 732 160 bytes
    Total Bitrate: 33.49 Mbps

    VIDEO:

    Codec Bitrate Deion
    ----- ------- -----------
    MPEG-4 AVC Video 26426 kbps 1080i / 25 fps / 16:9 / High Profile 4.1

    AUDIO:

    Codec Language Bitrate Deion
    ----- -------- ------- -----------
    DTS-HD Master Audio French 1972 kbps 5.1 / 48 kHz / 1972 kbps / 16-bit (DTS Core: 5.1 / 48 kHz / 1509 kbps / 16-bit)
    DTS-HD Master Audio Russian 1975 kbps 5.1 / 48 kHz / 1975 kbps / 16-bit (DTS Core: 5.1 / 48 kHz / 1509 kbps / 16-bit)
    Dolby Digital Audio Russian 448 kbps 5.1 / 48 kHz / 448 kbps / DN -4dB
    Dolby Digital Audio Russian 192 kbps 2.0 / 48 kHz / 192 kbps / DN -4dB
    Dolby Digital Audio Russian 192 kbps 2.0 / 48 kHz / 192 kbps / DN -4dB
    Dolby Digital Audio Ukrainian 192 kbps 2.0 / 48 kHz / 192 kbps / DN -4dB

    SUBTITLES:

    Codec Language Bitrate Deion
    ----- -------- ------- -----------
    Presentation Graphics Russian 39.657 kbps

    FILES:

    Name Time In Length Size Total Bitrate
    ---- ------- ------ ---- -------------
    00003.M2TS 0:00:00.000 1:40:04.200 25 136 732 160 33 492

    Файлы:
    Качество фильма: Blu-ray 1080i
    Информация о видео: MPEG-4 AVC, 26426 Кбит/с, 1920x1080, 25.000 кадр/с
    Информация о звуке #1: Французский (DTS-HD MA, 6 ch, 1972 Кбит/с)
    Информация о звуке #2: Русский (DTS-HD MA, 6 ch, 1975 Кбит/с) / Профессиональный одноголосый (В.Штейн)
    Информация о звуке #3: Русский (AC3, 6 ch, 448 Кбит/с) / Профессиональный двухголосый (RUSCICO)
    Информация о звуке #4: Русский (AC3, 2 ch, 192 Кбит/с) / Дублированный (Новый Дубляж)
    Информация о звуке #5: Русский (AC3, 2 ch, 192 Кбит/с) / Профессиональный многоголосый (НТВ)
    Информация о звуке #6: Украинский (AC3, 2 ch, 192 Кбит/с) / Профессиональный двухголосый (1 1)
    Субтитры: Русские
    Время просмотра: 01:40:04



    Анжелика и король / Angelique et le roi (1966)


    Сюжет фильма: Король Людовик XIV дает Анжелике задание: уговорить персидского посла подписать договор с Францией. Решив, что цель оправдывает средства, она использует все свое очарование. Посол соглашается на сделку, но взамен требует прекрасную Анжелику...

    Скриншоты для ознакомления:
    Инфо-файл:
    DISC INFO:

    Disc Title: 3_ ANGELIQUE_ET_LE_ROY_BD
    Disc Size: 24 532 981 076 bytes
    Protection: AACS
    BD-Java: Yes
    BDInfo: 0.5.6

    PLAYLIST REPORT:

    Name: 00003.MPLS
    Length: 1:40:05 (h : m : s)
    Size: 24 416 176 128 bytes
    Total Bitrate: 32.52 Mbps

    VIDEO:

    Codec Bitrate Deion
    ----- ------- -----------
    MPEG-4 AVC Video 26367 kbps 1080i / 25 fps / 16:9 / High Profile 4.1

    AUDIO:

    Codec Language Bitrate Deion
    ----- -------- ------- -----------
    DTS-HD Master Audio French 1756 kbps 5.1 / 48 kHz / 1756 kbps / 16-bit (DTS Core: 5.1 / 48 kHz / 1509 kbps / 16-bit)
    DTS-HD Master Audio Russian 1783 kbps 5.1 / 48 kHz / 1783 kbps / 16-bit (DTS Core: 5.1 / 48 kHz / 1509 kbps / 16-bit)
    Dolby Digital Audio Russian 192 kbps 2.0 / 48 kHz / 192 kbps / DN -4dB
    Dolby Digital Audio Russian 192 kbps 2.0 / 48 kHz / 192 kbps / DN -4dB
    Dolby Digital Audio Ukrainian 192 kbps 2.0 / 48 kHz / 192 kbps / DN -4dB

    SUBTITLES:

    Codec Language Bitrate Deion
    ----- -------- ------- -----------
    Presentation Graphics Russian 35.431 kbps

    FILES:

    Name Time In Length Size Total Bitrate
    ---- ------- ------ ---- -------------
    00003.M2TS 0:00:00.000 1:40:05.560 24 416 176 128 32 525

    Файлы:
    Качество фильма: Blu-ray 1080i
    Информация о видео: MPEG-4 AVC, 26367 Кбит/с, 1920x1080, 25.000 кадр/с
    Информация о звуке #1: Французский (DTS-HD MA, 6 ch, 1756 Кбит/с)
    Информация о звуке #2: Русский (DTS-HD MA, 6 ch, 1783 Кбит/с) / Профессиональный одноголосый (В.Штейн)
    Информация о звуке #4: Русский (AC3, 2 ch, 192 Кбит/с) / Дублированный (Советский Дубляж)
    Информация о звуке #5: Русский (AC3, 2 ch, 192 Кбит/с) / Профессиональный многоголосый (НТВ)
    Информация о звуке #6: Украинский (AC3, 2 ch, 192 Кбит/с) / Профессиональный двухголосый (1 1)
    Субтитры: Русские
    Время просмотра: 01:40:05



    Неукротимая Анжелика / Indomptable Angelique (1967)


    Сюжет фильма: Поиски мужа приводят Анжелику к морскому побережью, где следы Жоффре де Пейрака обрываются... Капитан королевской галеры, пораженный красотой молодой женщины, принуждает ее подняться на борт и сопровождать его в плавании.

    Скриншоты для ознакомления:
    Инфо-файл:
    DISC INFO:

    Disc Title: 4_ INDOMPTABLE_ANGELIQUE_BD
    Disc Size: 22 633 292 570 bytes
    Protection: AACS
    BD-Java: Yes
    BDInfo: 0.5.6

    PLAYLIST REPORT:

    Name: 00003.MPLS
    Length: 1:22:13 (h : m : s)
    Size: 22 552 461 312 bytes
    Total Bitrate: 36.57 Mbps

    VIDEO:

    Codec Bitrate Deion
    ----- ------- -----------
    MPEG-4 AVC Video 29844 kbps 1080i / 25 fps / 16:9 / High Profile 4.1

    AUDIO:

    Codec Language Bitrate Deion
    ----- -------- ------- -----------
    DTS-HD Master Audio French 1849 kbps 5.1 / 48 kHz / 1849 kbps / 16-bit (DTS Core: 5.1 / 48 kHz / 1509 kbps / 16-bit)
    DTS-HD Master Audio Russian 1869 kbps 5.1 / 48 kHz / 1869 kbps / 16-bit (DTS Core: 5.1 / 48 kHz / 1509 kbps / 16-bit)
    Dolby Digital Audio Russian 192 kbps 2.0 / 48 kHz / 192 kbps / DN -4dB
    Dolby Digital Audio Russian 192 kbps 2.0 / 48 kHz / 192 kbps / DN -4dB
    Dolby Digital Audio Russian 192 kbps 2.0 / 48 kHz / 192 kbps / DN -4dB
    Dolby Digital Audio Ukrainian 192 kbps 2.0 / 48 kHz / 192 kbps / DN -4dB

    SUBTITLES:

    Codec Language Bitrate Deion
    ----- -------- ------- -----------
    Presentation Graphics Russian 26.800 kbps

    FILES:

    Name Time In Length Size Total Bitrate
    ---- ------- ------ ---- -------------
    00003.M2TS 0:00:00.000 1:22:13.600 22 552 461 312 36 570

    Файлы:
    Качество фильма: Blu-ray 1080i
    Информация о видео: MPEG-4 AVC, 29844 Кбит/с, 1920x1080, 25.000 кадр/с
    Информация о звуке #1: Французский (DTS-HD MA, 6 ch, 1849 Кбит/с)
    Информация о звуке #2: Русский (DTS-HD MA, 6 ch, 1869 Кбит/с) / Профессиональный одноголосый (В.Штейн)
    Информация о звуке #3: Русский (AC3, 2 ch, 192 Кбит/с) / Дублированный (Советский Дубляж)
    Информация о звуке #4: Русский (AC3, 2 ch, 192 Кбит/с) / Дублированный (Новый Дубляж)
    Информация о звуке #5: Русский (AC3, 2 ch, 192 Кбит/с) / Профессиональный многоголосый (НТВ)
    Информация о звуке #6: Украинский (AC3, 2 ch, 192 Кбит/с) / Профессиональный двухголосый (1 1)
    Субтитры: Русские
    Время просмотра: 01:22:13



    Анжелика и Султан / Angelique et le Sultan (1968)


    Сюжет фильма: Анжелика оказывается на Востоке. Захваченная в плен воинами арабского султана, она попадает к нему в гарем, но в очередной раз доказывает свою преданность и любовь к мужу. Единственное чувство, согревающее сердце Анжелики, - это надежда вновь обрести своего возлюбленного...

    Скриншоты для ознакомления:
    Инфо-файл:
    DISC INFO:

    Disc Title: 5_ANGELIQUE_ET_LE_SULTAN_BD
    Disc Size: 19 165 400 004 bytes
    Protection: AACS
    BD-Java: Yes
    BDInfo: 0.5.6

    PLAYLIST REPORT:

    Name: 00003.MPLS
    Length: 1:37:40 (h : m : s)
    Size: 19 077 931 008 bytes
    Total Bitrate: 26.04 Mbps

    VIDEO:

    Codec Bitrate Deion
    ----- ------- -----------
    MPEG-4 AVC Video 20000 kbps 1080p / 24 fps / 16:9 / High Profile 4.1

    AUDIO:

    Codec Language Bitrate Deion
    ----- -------- ------- -----------
    DTS-HD Master Audio French 1850 kbps 5.1 / 48 kHz / 1850 kbps / 16-bit (DTS Core: 5.1 / 48 kHz / 1509 kbps / 16-bit)
    DTS-HD Master Audio Russian 1865 kbps 5.1 / 48 kHz / 1865 kbps / 16-bit (DTS Core: 5.1 / 48 kHz / 1509 kbps / 16-bit)
    Dolby Digital Audio Russian 192 kbps 2.0 / 48 kHz / 192 kbps / DN -4dB
    Dolby Digital Audio Russian 192 kbps 2.0 / 48 kHz / 192 kbps / DN -4dB
    Dolby Digital Audio Ukrainian 192 kbps 2.0 / 48 kHz / 192 kbps / DN -4dB

    SUBTITLES:

    Codec Language Bitrate Deion
    ----- -------- ------- -----------
    Presentation Graphics Russian 24.075 kbps

    FILES:

    Name Time In Length Size Total Bitrate
    ---- ------- ------ ---- -------------
    00003.M2TS 0:00:00.000 1:37:40.333 19 077 931 008 26 043

    Файлы:
    Качество фильма: Blu-ray 1080i
    Информация о видео: MPEG-4 AVC, 20000 Кбит/с, 1920x1080, 25.000 кадр/с
    Информация о звуке #1: Французский (DTS-HD MA, 6 ch, 1850 Кбит/с)
    Информация о звуке #2: Русский (DTS-HD MA, 6 ch, 1865 Кбит/с) / Профессиональный одноголосый (В.Штейн)
    Информация о звуке #3: Русский (AC3, 2 ch, 192 Кбит/с) / Дублированный (Советский Дубляж)
    Информация о звуке #4: Русский (AC3, 2 ch, 192 Кбит/с) / Профессиональный многоголосый (НТВ)
    Информация о звуке #5: Украинский (AC3, 2 ch, 192 Кбит/с) / Профессиональный двухголосый (1 1)
    Субтитры: Русские
    Время просмотра: 01:37:40


    Залил: ShinE_Ledy
    Размер скачиваемого торрента: 108.69 GB (116703205042 Bytes)

    Анжелика: Коллекция / Angelique: Collection (1964-1968) Blu-ray 1080i | 5-Disc Edition скачать через торрент бесплатно
    загрузка...
    Рейтинг →
     (голосов: 1, оценка 4/5, голосовать можно 1 раз )

    Другие торренты по теме:

  • Анжелика - Коллекция (1988-1990) FLAC скачать через торрент бесплатно
  • Анжелика: Коллекция / Angelique: Collection (1964-1968) BDRip 720p скачать торрент бесплатно
  • Анжелика Рута - Коллекция (2014) MP3 торрент скачать бесплатно
  • Анжелика. Полная коллекция. Все 13 аудиокниг скачать через торрент бесплатно
  • Анжелика (Ютт) - Коллекция (2002-2014) FLAC скачать торрент бесплатно


    • Комментарии (0):

      Информация

      Информация

        Посетители, находящиеся в группе Гости, не могут оставлять комментарии в данной новости.

        ↓ Меню



        ↓ Опрос

        А Вы добавили сайт в закладки?
        Да
        Не


        Top 10 за неделю (Фильмы)