.
Авторизация | Регистрация
Хочешь лучшие торренты? Добавь свой email!
Добавить
» » Рука, качающая колыбель / The Hand That Rocks the Cradle (1992) BDRip-AVC | iPhone | P,P скачать через торрент бесплатно




    Рука, качающая колыбель / The Hand That Rocks the Cradle (1992) BDRip-AVC | iPhone | P,P скачать через торрент бесплатно

    Опубликовал: Админ | Дата: 27-02-2015, 11:10 | Просмотров: 265



    Рука, качающая колыбель / The Hand That Rocks the Cradle (1992) BDRip-AVC | iPhone | P,P2

    Русское название: Рука, качающая колыбель
    Русское название в мировом прокате: The Hand That Rocks the Cradle
    Создали в: 1992
    Категория жанра: триллер, драма
    Главный режиссер: Кёртис Хэнсон
    Актеры: Аннабелла Шиорра, Ребекка Де Морнэй, Мэтт МакКой, Эрни Хадсон, Джулианна Мур, Мадлен Зима, Джон де Ланси, Кевин Скаусен, Митчелл Лоранс, Джастин Заремби

    Сюжет фильма:
    Муж Пэйтон Фландерс, обвиненный в сексуальных домогательствах к своим пациенткам, кончает жизнь самоубийством. Потрясение с этим связанное приводит к преждевременным родам, и ребенок Пэйтон рождается мертвым.
    Кто-то должен заплатить за это, и Пэйтон устраивается сиделкой в дом женщины, которая первой выдвинула обвинения против ее мужа.



    Снималось в: США
    Киностудия: Hollywood Pictures, Interscope Communications, Nomura Babcock Brown, Rock;n Cradle Productions
    Время просмотра: 01:50:27
    Перевод текста: Русский профессиональный многоголосый закадровый, профессиональный двухголосый закадровый

    Файл
    Кодек для видео: H.264
    Качество фильма: BDRip-AVC 480p
    Информация о видео: 640x480@851x480 (16:9) at 23.976 fps, AVC at 1420 kbps
    Информация о звуке:
    1: АAС 2.0 192 kbps - Русский профессиональный двухголосый закадровый (НТВ )
    1: АAС 2.0 192 kbps - Русский профессиональный многоголосый закадровый (ОРТ)
    1: АAС 2.0 138 kbps - Английский
    Субтитры: Русские, Английские

    MI

    General
    Complete name : C:CREATE480outThe Hand That Rocks the Cradle.1992 (SD).m4v
    Format : MPEG-4
    Codec ID : M4V
    File size : 1.41 GiB
    Duration : 1h 50mn
    Overall bit rate mode : Variable
    Overall bit rate : 1 825 Kbps
    Movie name : Рука, качающая колыбель
    Performer : Curtis Hanson
    Genre : Drama
    Recorded date : UTC 1992-01-10 08:00:00
    Encoded date : UTC 2014-03-16 08:47:48
    Tagged date : UTC 2014-03-16 10:10:00
    Copyright : © 1992 Buena Vista Pictures Distribution, Inc. All Rights Reserved.
    Cover : Yes
    Comment : Behind a beautiful face, beneath a dangerous smile, lies a revenge that can;t be stopped
    iTunEXTC : mpaa|R|400|

    sonm : The Hand That Rocks the Cradle
    desc : Муж Пэйтон Фландерс, обвиненный в сексуальных домогательствах к своим пациенткам, кончает жизнь самоубийством. Потрясение с этим связанное приводит к преждевременным родам, и ребенок Пэйтон рождается мертвым.
    ldes : Муж Пэйтон Фландерс, обвиненный в сексуальных домогательствах к своим пациенткам, кончает жизнь самоубийством. Потрясение с этим связанное приводит к преждевременным родам, и ребенок Пэйтон рождается мертвым. / Кто-то должен заплатить за это, и Пэйтон устраивается сиделкой в дом женщины, которая первой выдвинула обвинения против ее мужа.
    hdvd : 0
    stik : 9
    cnID : 443381770
    xid : Apple:vendor_id:1991-12514

    Video
    ID : 1
    Format : AVC
    Format/Info : Advanced Video Codec
    Format profile : Baseline@L3.0
    Format settings, CABAC : No
    Format settings, ReFrames : 2 frames
    Codec ID : avc1
    Codec ID/Info : Advanced Video Coding
    Duration : 1h 50mn
    Bit rate : 1 419 Kbps
    Maximum bit rate : 6 085 Kbps
    Width : 640 pixels
    Height : 480 pixels
    Display aspect ratio : 16:9
    Frame rate mode : Constant
    Frame rate : 23.976 fps
    Color space : YUV
    Chroma subsampling : 4:2:0
    Bit depth : 8 bits
    Scan type : Progressive
    Bits/(Pixel*Frame) : 0.193
    Stream size : 1.09 GiB (78%)
    Title : The Hand That Rocks the Cradle _1992_
    Writing library : x264 core 140 r2377 40 929f149 tMod 8-bit@4:2:0 X86_64
    Encoding settings : cabac=0 / ref=2 / deblock=1:-1:-1 / analyse=0x1:0x131 / me=umh / subme=7 / psy=1 / fade_compensate=0.50 / psy_rd=0.95:0.15 / mixed_ref=1 / me_range=32 / chroma_me=1 / trellis=2 / 8x8dct=0 / cqm=0 / deadzone=21,11 / fast_pskip=0 / chroma_qp_offset=-3 / threads=12 / lookahead_threads=2 / sliced_threads=0 / nr=0 / decimate=0 / interlaced=0 / bluray_compat=0 / constrained_intra=0 / fgo=0 / bframes=0 / weightp=0 / keyint=250 / keyint_min=23 / scenecut=40 / intra_refresh=0 / rc_lookahead=96 / rc=crf / mbtree=1 / crf=21.0000 / qcomp=0.60 / qpmin=0:0:0 / qpmax=69:69:69 / qpstep=4 / vbv_maxrate=5000 / vbv_bufsize=5000 / crf_max=0.0 / nal_hrd=none / filler=0 / ip_ratio=1.30 / aq=4:0.90 / aq-sensitivity=10.00 / aq-factor=1.00:1.00:1.00 / aq2=0 / aq3=0
    Language : English
    Encoded date : UTC 2014-03-16 08:47:48
    Tagged date : UTC 2014-03-16 08:48:51
    Matrix coefficients : BT.709

    Audio #1
    ID : 2
    Format : AAC
    Format/Info : Advanced Audio Codec
    Format profile : LC
    Codec ID : 40
    Duration : 1h 50mn
    Bit rate mode : Variable
    Bit rate : 125 Kbps
    Maximum bit rate : 150 Kbps
    Channel(s) : 2 channels
    Channel positions : Front: L R
    Sampling rate : 48.0 KHz
    Compression mode : Lossy
    Stream size : 98.6 MiB (7%)
    Title : MVO HTB_
    Language : Russian
    Encoded date : UTC 2014-03-16 08:48:27
    Tagged date : UTC 2014-03-16 08:48:51

    Audio #2
    ID : 3
    Format : AAC
    Format/Info : Advanced Audio Codec
    Format profile : LC
    Codec ID : 40
    Duration : 1h 50mn
    Bit rate mode : Variable
    Bit rate : 132 Kbps
    Maximum bit rate : 143 Kbps
    Channel(s) : 2 channels
    Channel positions : Front: L R
    Sampling rate : 48.0 KHz
    Compression mode : Lossy
    Stream size : 103 MiB (7%)
    Title : MVO OPT
    Language : Russian
    Encoded date : UTC 2014-03-16 08:48:38
    Tagged date : UTC 2014-03-16 08:48:51

    Audio #3
    ID : 4
    Format : AAC
    Format/Info : Advanced Audio Codec
    Format profile : LC
    Codec ID : 40
    Duration : 1h 50mn
    Bit rate mode : Variable
    Bit rate : 138 Kbps
    Maximum bit rate : 167 Kbps
    Channel(s) : 2 channels
    Channel positions : Front: L R
    Sampling rate : 48.0 KHz
    Compression mode : Lossy
    Stream size : 109 MiB (8%)
    Title : Original
    Language : English
    Encoded date : UTC 2014-03-16 08:44:01
    Tagged date : UTC 2014-03-16 08:48:51

    Text #1
    ID : 5
    Format : Timed Text
    Muxing mode : sbtl
    Codec ID : tx3g
    Duration : 1h 47mn
    Bit rate mode : Variable
    Bit rate : 83 bps
    Stream size : 65.2 KiB (0%)
    Title : Subtitle Russian
    Language : Russian
    Encoded date : UTC 2014-03-16 08:48:51
    Tagged date : UTC 2014-03-16 08:48:51

    Text #2
    ID : 6
    Format : Timed Text
    Muxing mode : sbtl
    Codec ID : tx3g
    Duration : 1h 47mn
    Bit rate mode : Variable
    Bit rate : 48 bps
    Stream size : 37.8 KiB (0%)
    Title : Subtitle English
    Language : English
    Encoded date : UTC 2014-03-16 08:48:51
    Tagged date : UTC 2014-03-16 08:48:51

    Menu
    ID : 7
    Codec ID : text
    Duration : 1h 50mn
    Encoded date : UTC 2014-03-16 08:51:08
    Tagged date : UTC 2014-03-16 08:51:08
    Bit rate mode : CBR
    iTunes tags

    Sort Name: The Hand That Rocks the Cradle
    XID: Apple:vendor_id:1991-12514
    Content ID: 443381770
    Copyright: © 1992 Buena Vista Pictures Distribution, Inc. All Rights Reserved.
    ScreenWriters: Аманда Сильвер
    Producers: Роберт В. Корт, Тед Филд, Ира Халберстадт
    Director: Кёртис Хэнсон
    Cast: Аннабелла Шиорра, Ребекка Де Морнэй, Мэтт МакКой, Эрни Хадсон, Джулианна Мур, Мадлен Зима, Джон де Ланси, Кевин Скаусен, Митчелл Лоранс, Джастин Заремб
    Rating: R
    Long Deion: Муж Пэйтон Фландерс, обвиненный в сексуальных домогательствах к своим пациенткам, кончает жизнь самоубийством. Потрясение с этим связанное приводит к преждевременным родам, и ребенок Пэйтон рождается мертвым.
    Кто-то должен заплатить за это, и Пэйтон устраивается сиделкой в дом женщины, которая первой выдвинула обвинения против ее мужа.
    Deion: Муж Пэйтон Фландерс, обвиненный в сексуальных домогательствах к своим пациенткам, кончает жизнь самоубийством. Потрясение с этим связанное приводит к преждевременным родам, и ребенок Пэйтон рождается мертвым.
    Release Date: 1992-01-10T08:00:00Z
    Genre: Drama
    Artist: Curtis Hanson
    Name: Рука, качающая колыбель
    Comments: Behind a beautiful face, beneath a dangerous smile, lies a revenge that can;t be stopped
    x264

    x264 info: frame I:1611 Avg QP:19.77 size: 30618
    x264 info: frame P:157131 Avg QP:22.02 size: 7162
    x264 info: mb I I16..4: 31.8% 0.0% 68.2%
    x264 info: mb P I16..4: 1.4% 0.0% 0.7% P16..4: 59.7% 13.9% 8.0% 0.9% 0.4% skip:14.9%
    x264 info: coded y,uvDC,uvAC intra: 45.6% 61.4% 23.7% inter: 32.7% 34.8% 7.9%
    x264 info: i16 v,h,dc,p: 53% 14% 6% 27%
    x264 info: i4 v,h,dc,ddl,ddr,vr,hd,vl,hu: 32% 13% 14% 6% 7% 10% 5% 8% 4%
    x264 info: i8c dc,h,v,p: 62% 11% 24% 4%
    x264 info: ref P L0: 72.4% 27.6%
    x264 info: kb/s:1419.34




    Залил: gekka
    Размер скачиваемого торрента: 1.41 GB (1511557739 Bytes)

    Рука, качающая колыбель / The Hand That Rocks the Cradle (1992) BDRip-AVC | iPhone | P,P скачать через торрент бесплатно
    загрузка...
    Рейтинг →
     (голосов: 1, оценка 3/5, голосовать можно 1 раз )

    Другие торренты по теме:

  • Рука, качающая колыбель / The Hand That Rocks The Cradle (1992) 720p от FREEISLAND
  • Рука, качающая колыбель / The Hand That Rocks the Cradle (1992) BDRip-AVC от 0ptimus | P, P2, A скачать через торрент бесплатно
  • Рука, качающая колыбель / The Hand That Rocks the Cradle (1992) BDRip от HQCLUB
  • Рука, качающая колыбель / The Hand That Rocks the Cradle (1992) BDRip-AVC | P,P2 скачать через торрент бесплатно


    • Комментарии (0):

      Информация

      Информация

        Посетители, находящиеся в группе Гости, не могут оставлять комментарии в данной новости.

        ↓ Меню



        ↓ Опрос

        А Вы добавили сайт в закладки?
        Да
        Не


        Top 10 за месяц (Фильмы)