.
Авторизация | Регистрация
» » Дракула / Dracula (2012) BDRip-AVC | P, 2xA, L2 скачать через торрент бесплатно




    Дракула / Dracula (2012) BDRip-AVC | P, 2xA, L2 скачать через торрент бесплатно

    Опубликовал: Админ | Дата: 27-02-2015, 11:10 | Просмотров: 294



    Детально о кино
    Русское название: Дракула
    Русское название в мировом прокате: Dracula
    Создали в: 2012
    Категория жанра: ужасы, триллер, мелодрама
    Главный режиссер: Дарио Ардженто
    Актеры: Азия Ардженто, Рутгер Хауэр, Томас Кречманн, Марта Гастини, Унакс Угальде, Мириам Джованелли, Морган Слемп, Мария Кристина Хеллер, Аугусто Дзукки, Джузеппе Ло Консоле

    Сюжет фильма:
    Действие фильма происходит в Трансильвании, в далеком 1893 году. В деревню Пассо Борго приезжает библиотекарь Джонатан Харкер. Он молод и счастлив. И устраивается на работу к важной особе графу Дракуле. Ближе узнав своего хозяина, его сущность и настоящее лицо, Джонатан осознает, насколько страшен и опасен граф для него и его жены Мины. В округе таинственным образом стали погибать жители деревни. Что-то нужно делать, но что? Все в смятении и тревоге. Вся надежда только на Авраама ван Хельсинга. Но удастся ли ему защитить людей и справиться с Дракулой?




    Снималось в: Италия, Франция, Испания
    Киностудия: Enrique Cerezo Producciones Cinematograficas S.A., Film Export Group, Les Films de l;Astre
    Время просмотра: 01:50:00
    Перевод текста: Профессиональное (многоголосое) Лицензия Авторское (одноголосое) Daniel Jackson Авторское (одноголосое) А.Дольский Любительское (двухголосое) HamsterStudio

    Файл
    Кодек для видео: h.264
    Качество фильма: BDRip-AVC
    Информация о видео: AVC, 1024 x 436, ~1801 kbps
    Информация о звуке: Русский Лицензия / Daniel Jackson: AC3, 448 kb/s (6 ch) / А.Дольский: AC3, 384 kb/s (6 ch) / HamsterStudio: AC3, 192 kb/s (6 ch) / Английский: AC3, 448 kb/s (6 ch)
    Субтитры: Английский

    Семпл

    Скриншоты для ознакомления
    MI
    Общее
    Уникальный идентификатор : 168348648403719580577546155723716462494 (0x7EA6C532C2870C1E037BA147C20E879E)
    Полное имя : G:Дракула Dracula (2012) BDRip-AVCDracula.2012.BDRip-AVC..mkv
    Формат : Matroska
    Версия формата : Version 2
    Размер файла : 2,92 Гбайт
    Продолжительность : 1 ч. 50 м.
    Режим общего битрейта : Переменный
    Общий поток : 3797 Кбит/сек
    Программа кодирования : Lavf51.12.1
    Библиотека кодирования : Lavf51.12.1

    Видео
    Идентификатор : 1
    Формат : AVC
    Формат/Информация : Advanced Video Codec
    Профиль формата : Baseline@L3.1
    Параметр CABAC формата : Нет
    Параметр ReFrames формата : 1 кадр
    Параметр GOP формата : M=1, N=12
    Идентификатор кодека : V_MPEG4/ISO/AVC
    Продолжительность : 1 ч. 50 м.
    Вид битрейта : Переменный
    Битрейт : 1801 Кбит/сек
    Максимальный битрейт : 2790 Кбит/сек
    Ширина : 1024 пикселя
    Высота : 436 пикселей
    Соотношение сторон : 2,35:1
    Соотношение сторон в оригинале : 2,35:1
    Режим частоты кадров : Постоянный
    Частота кадров : 23,976 кадра/сек
    Частота кадров в оригинале : 24,000 кадра/сек
    Цветовое пространство : YUV
    Субдискретизация насыщенности : 4:2:0
    Битовая глубина : 8 бит
    Тип развёртки : Прогрессивная
    Бит/(Пиксели*Кадры) : 0.168
    Размер потока : 1,38 Гбайт (47%)
    Язык : English
    Default : Да
    Forced : Нет

    Аудио #1
    Идентификатор : 2
    Формат : AC-3
    Формат/Информация : Audio Coding 3
    Расширение режима : CM (complete main)
    Параметр Endianness формата : Big
    Идентификатор кодека : A_AC3
    Продолжительность : 1 ч. 50 м.
    Вид битрейта : Постоянный
    Битрейт : 448 Кбит/сек
    Каналы : 6 каналов
    Расположение каналов : Front: L C R, Side: L R, LFE
    Частота : 48,0 КГц
    Битовая глубина : 16 бит
    Метод сжатия : С потерями
    Размер потока : 353 Мбайт (12%)
    Язык : Russian
    Default : Да
    Forced : Нет

    Аудио #2
    Идентификатор : 4
    Формат : AC-3
    Формат/Информация : Audio Coding 3
    Расширение режима : CM (complete main)
    Параметр Endianness формата : Big
    Идентификатор кодека : A_AC3
    Продолжительность : 1 ч. 50 м.
    Вид битрейта : Постоянный
    Битрейт : 448 Кбит/сек
    Каналы : 6 каналов
    Расположение каналов : Front: L C R, Side: L R, LFE
    Частота : 48,0 КГц
    Битовая глубина : 16 бит
    Метод сжатия : С потерями
    Размер потока : 353 Мбайт (12%)
    Язык : Russian
    Default : Да
    Forced : Нет

    Аудио #3
    Идентификатор : 5
    Формат : AC-3
    Формат/Информация : Audio Coding 3
    Расширение режима : CM (complete main)
    Параметр Endianness формата : Big
    Идентификатор кодека : A_AC3
    Продолжительность : 1 ч. 50 м.
    Вид битрейта : Постоянный
    Битрейт : 384 Кбит/сек
    Каналы : 6 каналов
    Расположение каналов : Front: L C R, Side: L R, LFE
    Частота : 48,0 КГц
    Битовая глубина : 16 бит
    Метод сжатия : С потерями
    Размер потока : 302 Мбайт (10%)
    Язык : Russian
    Default : Да
    Forced : Нет

    Аудио #4
    Идентификатор : 6
    Формат : AC-3
    Формат/Информация : Audio Coding 3
    Расширение режима : CM (complete main)
    Параметр Endianness формата : Big
    Идентификатор кодека : A_AC3
    Продолжительность : 1 ч. 50 м.
    Вид битрейта : Постоянный
    Битрейт : 192 Кбит/сек
    Каналы : 2 канала
    Расположение каналов : Front: L R
    Частота : 48,0 КГц
    Битовая глубина : 16 бит
    Метод сжатия : С потерями
    Размер потока : 151 Мбайт (5%)
    Язык : Russian
    Default : Да
    Forced : Нет

    Аудио #5
    Идентификатор : 7
    Формат : AC-3
    Формат/Информация : Audio Coding 3
    Расширение режима : CM (complete main)
    Параметр Endianness формата : Big
    Идентификатор кодека : A_AC3
    Продолжительность : 1 ч. 50 м.
    Вид битрейта : Постоянный
    Битрейт : 448 Кбит/сек
    Каналы : 6 каналов
    Расположение каналов : Front: L C R, Side: L R, LFE
    Частота : 48,0 КГц
    Битовая глубина : 16 бит
    Метод сжатия : С потерями
    Размер потока : 353 Мбайт (12%)
    Язык : English
    Default : Да
    Forced : Нет

    Текст
    Идентификатор : 3
    Формат : UTF-8
    Идентификатор кодека : S_TEXT/UTF8
    Идентификатор кодека/Информация : UTF-8 Plain Text
    Язык : English
    Default : Да
    Forced : Нет

    Размер скачиваемого торрента: 2.92 GB (3132533340 Bytes)

    Дракула / Dracula (2012) BDRip-AVC | P, 2xA, L2 скачать через торрент бесплатно
    загрузка...
    Рейтинг →
     (голосов: 1, оценка 4/5, голосовать можно 1 раз )

    Другие торренты по теме:

  • Дракула 2000 / Dracula 2000 (2000) BDRip 720p | D торрент скачать бесплатно
  • Дракула Брэма Стокера / Bram Stokers Dracula (1992) HDRip | D торрент скачать бесплатно
  • Стокер Брэм - Дракула (2005) MP3 торрент скачать бесплатно
  • Дракула 3D / Dracula (2012) HDRip | L1 торрент скачать бесплатно
  • Брэм Стокер - Дракула (2013) MP3 торрент скачать бесплатно
  • Дракула - отец и сын / Dracula pеre et fils (1976) DVDRip-AVC от Тorrent-Хzona торрент скачать бесплатно
  • Дракула 2000 / Dracula 2000 (2000) BDRip от HQCLUB скачать через торрент бесплатно
  • Дракула 2: Вознесение / Dracula II: Ascension (2003) BDRip от HQCLUB торрент скачать бесплатно


    • Комментарии (0):

      Информация

      Информация

        Посетители, находящиеся в группе Гости, не могут оставлять комментарии в данной новости.

        ↓ Меню



        ↓ Опрос

        А Вы добавили сайт в закладки?
        Да
        Не


        Top 10 за неделю (Фильмы)