.
Авторизация | Регистрация
» » Поэзия / Shi / Poetry (2010) BDRip by msltel | P, L1 скачать через торрент бесплатно




    Поэзия / Shi / Poetry (2010) BDRip by msltel | P, L1 скачать через торрент бесплатно

    Опубликовал: Админ | Дата: 27-02-2015, 11:10 | Просмотров: 219



    Русское название: Поэзия
    Русское название в мировом прокате: Shi / Poetry
    Создали в: 2010
    Категория жанра: Драма
    Снималось в: Южная Корея, UniKorea Pictures, Pine House Film
    Главный режиссер: Ли Чан Дон
    Актеры: Юн Чжон Хи, Ли Да Вит, Ким Хи Ра, Нэ Сан Ан, Минг-Шин Парк, Ен-Тхэк Ким, Ким Чон Гу

    Сюжет фильма: В маленьком городе провинции Кенгидо, где протекает река Хан, живёт Миджа со своим внуком-школьником. Эксцентричная и любопытная женщина очень любит заботиться о своей внешности и носит шляпы, расписанные цветами, и яркую одежду. Случайно она попадает на курсы обучения стихосложению в местном доме культуры. Впервые в жизни Миджа пишет стихотворение. Она ищет красоту в своём обычном окружении, на которое никогда не обращала особого внимания. Ей кажется, что теперь она наконец заметила то, что раньше просто не видела, и приходит в восторг. Однако неожиданные события заставляют женщину осознать, что жизнь не так прекрасна, как ей представлялось...

    Качество фильма: BDRip
    Размер скачиваемого торрента: 2.96 ГБ
    Время просмотра: 02:19:21

    Информация о видео: XviD, 1905 Кбит/с, 720x384
    Информация о звуке: русский, 48 kHz, AC3, 2 ch, 224 kbps avg, Профессиональный многоголосый, R5

    Внешние файлы
    Информация о звуке: русский, 48 kHz, AC3, 6 ch, 448 kbps avg, Любительский одноголосый, DeMoN
    Информация о звуке: корейский, 48 kHz, AC3, 6 ch, 448 kbps avg, Оригинал
    Субтитры: русские
    Субтитры: английские

    Исходник: FreeZZ (Кинозал)

    Сравнение с исходником



    Награды
    Азиатская киноакадемия, 2011 год
    Победитель (2):
    Лучший режиссер (Ли Чан Дон)
    Лучшая работа сценариста

    Номинации (1):
    Лучший фильм

    Каннский кинофестиваль, 2010 год
    Победитель (2):
    Лучший сценарий
    Приз экуменического (христианского) жюри - особое упоминание

    Номинации (1):
    Золотая пальмовая ветвь
    MediaInfo
    Общее
    Полное имя : D:VideoPoezija.2010.XviD.BDRipPoezija.2010.eng.srt
    Формат : SubRip
    Размер файла : 94,5 Кбайт

    Текст
    Формат : SubRip
    Метод сжатия : Без потерь

    Общее
    Полное имя : D:VideoPoezija.2010.XviD.BDRipPoezija.2010.Original.kor.ac3
    Формат : AC-3
    Формат/Информация : Audio Coding 3
    Размер файла : 447 Мбайт
    Продолжительность : 2 ч. 19 м.
    Режим общего битрейта : Постоянный
    Общий поток : 448 Кбит/сек

    Аудио
    Формат : AC-3
    Формат/Информация : Audio Coding 3
    Расширение режима : CM (complete main)
    Параметр Endianness формата : Big
    Продолжительность : 2 ч. 19 м.
    Вид битрейта : Постоянный
    Битрейт : 448 Кбит/сек
    Каналы : 6 каналов
    Расположение каналов : Front: L C R, Side: L R, LFE
    Частота : 48,0 КГц
    Битовая глубина : 16 бит
    Метод сжатия : С потерями
    Размер потока : 447 Мбайт (100%)

    Общее
    Полное имя : D:VideoPoezija.2010.XviD.BDRipPoezija.2010.rus.srt
    Формат : SubRip
    Размер файла : 123 Кбайт

    Текст
    Формат : SubRip
    Метод сжатия : Без потерь

    Общее
    Полное имя : D:VideoPoezija.2010.XviD.BDRipPoezija.2010.VO.rus.DeMoN.ac3
    Формат : AC-3
    Формат/Информация : Audio Coding 3
    Размер файла : 446 Мбайт
    Продолжительность : 2 ч. 19 м.
    Режим общего битрейта : Постоянный
    Общий поток : 448 Кбит/сек

    Аудио
    Формат : AC-3
    Формат/Информация : Audio Coding 3
    Расширение режима : CM (complete main)
    Параметр Endianness формата : Big
    Продолжительность : 2 ч. 19 м.
    Вид битрейта : Постоянный
    Битрейт : 448 Кбит/сек
    Каналы : 6 каналов
    Расположение каналов : Front: L C R, Side: L R, LFE
    Частота : 48,0 КГц
    Битовая глубина : 16 бит
    Метод сжатия : С потерями
    Размер потока : 446 Мбайт (100%)

    Общее
    Полное имя : D:VideoPoezija.2010.XviD.BDRipPoezija.2010.XviD.BDRip.avi
    Формат : AVI
    Формат/Информация : Audio Video Interleave
    Профиль формата : OpenDML
    Размер файла : 2,08 Гбайт
    Продолжительность : 2 ч. 19 м.
    Общий поток : 2141 Кбит/сек
    Программа кодирования : VirtualDubMod 1.5.10.2 (build 2540/release)
    Библиотека кодирования : VirtualDubMod build 2540/release

    Видео
    Идентификатор : 0
    Формат : MPEG-4 Visual
    Профиль формата : Advanced Simple@L5
    Параметр BVOP формата : 1
    Параметр QPel формата : Нет
    Параметр GMC формата : Без точки перехода
    Параметр матрицы формата : Default (H.263)
    Режим смешивания : Сжатый битовый поток
    Идентификатор кодека : XVID
    Идентификатор кодека/Подсказка : XviD
    Продолжительность : 2 ч. 19 м.
    Битрейт : 1905 Кбит/сек
    Ширина : 720 пикселей
    Высота : 384 пикселя
    Соотношение сторон : 1,85:1
    Частота кадров : 23,976 кадра/сек
    Цветовое пространство : YUV
    Субдискретизация насыщенности : 4:2:0
    Битовая глубина : 8 бит
    Тип развёртки : Прогрессивная
    Метод сжатия : С потерями
    Бит/(Пиксели*Кадры) : 0.287
    Размер потока : 1,85 Гбайт (89%)
    Библиотека кодирования : XviD 1.2.1 (UTC 2008-12-04)

    Аудио
    Идентификатор : 1
    Формат : AC-3
    Формат/Информация : Audio Coding 3
    Расширение режима : CM (complete main)
    Параметр Endianness формата : Big
    Идентификатор кодека : 2000
    Продолжительность : 2 ч. 19 м.
    Вид битрейта : Постоянный
    Битрейт : 224 Кбит/сек
    Каналы : 2 канала
    Расположение каналов : Front: L R
    Частота : 48,0 КГц
    Битовая глубина : 16 бит
    Метод сжатия : С потерями
    Размер потока : 223 Мбайт (10%)
    Выравнивание : Разделение по промежуткам
    Продолжительность промежутка : 42 мс. (1,00 видеокадр)
    Время предзагрузки промежутка : 500 мс.
    Скриншоты для ознакомления



    Залил: msltel
    Размер скачиваемого торрента: 2.96 GB (3174144377 Bytes)

    Поэзия / Shi / Poetry (2010) BDRip by msltel | P, L1 скачать через торрент бесплатно
    загрузка...
    Рейтинг →
     (голосов: 1, оценка 4/5, голосовать можно 1 раз )

    Другие торренты по теме:



      Комментарии (0):

      Информация

      Информация

        Посетители, находящиеся в группе Гости, не могут оставлять комментарии в данной новости.

        ↓ Меню



        ↓ Опрос

        А Вы добавили сайт в закладки?
        Да
        Не


        Top 10 за неделю (Фильмы)