.
Авторизация | Регистрация
» » Логово / Прибежище / Haunt (2013) WEB-DLRip | Sub торрент скачать бесплатно




    Логово / Прибежище / Haunt (2013) WEB-DLRip | Sub торрент скачать бесплатно

    Опубликовал: Админ | Дата: 27-02-2015, 11:10 | Просмотров: 256

    Детально о кино
    Русское название: Логово / Прибежище / Haunt
    Создали в: 2014
    Категория жанра: Ужасы
    Главный режиссер: Мак Картер
    Актеры: Лиана Либерато, Айон Скай, Гаррисон Гилбертсон, Джеки Вивер, Карл Хандра


    Сюжет:
    Замкнутый подросток воодушевляется знакомством со своей новой соседкой, и уже вместе парочка начинает исследовать дом с привидениями, который его семья накануне купила по неведению.












    Тех. данные


    Время просмотра: 01:48:45
    Снималось в: США, QED International, Revolver Picture Company
    Перевод текста: Субтитры Antonio
    Субтитры подготовлены: Русские
    Оригинальная аудиодорожка: Английская

    Файл
    Тип видео: AVI
    Качество фильма: WEB-DLRip
    Информация о видео: Xvid 720x304 23.98fps 1067Kbps
    Информация о звуке: Dolby AC3 48000Hz stereo 160Kbps
    Тип видео субтитров: softsub (SRT)
    MI:

    General
    Complete name : D:TORRENTSЛОГОВОЛогово.avi
    Format : AVI
    Format/Info : Audio Video Interleave
    File size : 759 MiB
    Duration : 1h 25mn
    Overall bit rate : 1 237 Kbps

    Video
    ID : 0
    Format : MPEG-4 Visual
    Format profile : Advanced Simple@L5
    Format settings, BVOP : 2
    Format settings, QPel : No
    Format settings, GMC : No warppoints
    Format settings, Matrix : Default (H.263)
    Codec ID : XVID
    Codec ID/Hint : XviD
    Duration : 1h 25mn
    Bit rate : 1 067 Kbps
    Width : 720 pixels
    Height : 304 pixels
    Display aspect ratio : 2.35:1
    Frame rate : 23.976 fps
    Color space : YUV
    Chroma subsampling : 4:2:0
    Bit depth : 8 bits
    Scan type : Progressive
    Compression mode : Lossy
    Bits/(Pixel*Frame) : 0.203
    Stream size : 655 MiB (86%)
    Writing library : XviD 64

    Audio
    ID : 1
    Format : AC-3
    Format/Info : Audio Coding 3
    Mode extension : CM (complete main)
    Format settings, Endianness : Big
    Codec ID : 2000
    Duration : 1h 25mn
    Bit rate mode : Constant
    Bit rate : 160 Kbps
    Channel(s) : 2 channels
    Channel positions : Front: L R
    Sampling rate : 48.0 KHz
    Bit depth : 16 bits
    Compression mode : Lossy
    Stream size : 98.2 MiB (13%)
    Alignment : Aligned on interleaves
    Interleave, duration : 42 ms (1.00 video frame)
    Скриншоты для ознакомления




    Размер скачиваемого торрента: 758.85 MB (795709337 Bytes)

    Логово / Прибежище / Haunt (2013) WEB-DLRip | Sub торрент скачать бесплатно
    загрузка...
    Рейтинг →
     (голосов: 1, оценка 4/5, голосовать можно 1 раз )

    Другие торренты по теме:

  • Логово Козла: Утерянные Хроники / Stargate: SG-1 (1997-2007 / 2012) DVDRip торрент скачать бесплатно
  • Профессия репортер. Из логова зверя (2013) SATRip торрент скачать бесплатно
  • Дьявольское логово / Devils Den (2006) DVDRip | Р2 торрент скачать бесплатно
  • Логово мутанта / The Nest (1988) DVDRip | P торрент скачать бесплатно
  • Логово Козла: Утерянные Хроники / Stargate: SG-1 (1997-2007 / 2013) DVDRip | Смешной перевод торрент скачать бесплатно
  • Логово мутанта / Гнездо / The Nest (1988) BDRip от Rulya74 торрент скачать бесплатно
  • Истории с Драконовой горы 2: Логово (2014) PC скачать через торрент бесплатно
  • Убежище / Логово / Hideaway (1995) HDTV 1080i | P скачать через торрент бесплатно


    • Комментарии (0):

      Информация

      Информация

        Посетители, находящиеся в группе Гости, не могут оставлять комментарии в данной новости.

        ↓ Меню



        ↓ Опрос

        А Вы добавили сайт в закладки?
        Да
        Не


        Top 10 за неделю (Фильмы)