.
Авторизация | Регистрация
» » Восточный ветер / Ostwind - Zusammen sind wir frei (2013) DVDRip | L1 торрент скачать бесплатно




    Восточный ветер / Ostwind - Zusammen sind wir frei (2013) DVDRip | L1 торрент скачать бесплатно

    Опубликовал: Админ | Дата: 27-02-2015, 11:10 | Просмотров: 228

    Детально о кино
    Русское название: Восточный ветер / Ostwind - Zusammen sind wir frei
    Создали в: 2013
    Категория жанра: Семейный
    Главный режиссер: Катя фон Гарнье
    Актеры: Детлев Бук, Корнелия Фробесс, Ханна Хёппнер, Нина Кронягер, Марвин Линке, Тило Прюкнер, Мартин Тон, Юрген Фогель


    Сюжет:
    Главную героиню фильма бунтарку Мику из-за плохих оценок в школе родители отправляет на целое лето на ранчо к строгой бабуле. Приехав в деревенскую глушь, девушка обнаруживает для себя кроме чтения книг довольно интересное занятие. В самом дальнем амбаре Мика встречает дикого норовистого жеребца по кличке Восточный ветер.
    Мика внезапно чувствует в этом жеребце родственную душу и ночью приходит в амбар к Восточному ветру. Так начинается дружба двух неукротимых душ. Удастся ли Мике вопреки всему укротить жеребца?




    * Раздача временная. Неверное наполнение контейнера avi.

    Тех. данные


    Время просмотра: 01:45:30
    Снималось в: Германия, Constantin Film Produktion GmbH, SamFilm GmbH
    Перевод текста: Одноголосый закадровый, любительский

    Файл
    Тип видео: AVI
    Качество фильма: DVDRip profile-LQ
    Информация о видео: MPEG-4 AVC/H.264, ~1639 kb/s, 720х392
    Информация о звуке: MP3, 2 ch, 256 kb/s
    MI:
    Общее
    Полное имя : E:ФильмыВосточный_ветер_2013.(AVC).avi
    Формат : AVI
    Формат/Информация : Audio Video Interleave
    Размер файла : 1,39 Гбайт
    Продолжительность : 1 ч. 45 м.
    Общий поток : 1891 Кбит/сек
    Название фильма : Приятного просмотра!
    Программа кодирования : VirtualDubMod 1.5.10.2 (build 2540/release)

    Видео
    Идентификатор : 0
    Формат : AVC
    Формат/Информация : Advanced Video Codec
    Профиль формата : Main@L3.0
    Параметр CABAC формата : Да
    Параметр ReFrames формата : 1 кадр
    Идентификатор кодека : H264
    Продолжительность : 1 ч. 45 м.
    Битрейт : 1639 Кбит/сек
    Ширина : 720 пикселей
    Высота : 392 пикселя
    Соотношение сторон : 1,85:1
    Режим частоты кадров : Переменный
    Частота кадров : 24,000 кадра/сек
    Цветовое пространство : YUV
    Субдискретизация насыщенности : 4:2:0
    Битовая глубина : 8 бит
    Тип развёртки : Прогрессивная
    Бит/(Пиксели*Кадры) : 0.242
    Размер потока : 1,20 Гбайт (86%)
    Библиотека кодирования : x264 core 129
    Настройки программы : cabac=1 / ref=1 / deblock=1:0:0 / analyse=0x1:0x131 / me=dia / subme=2 / psy=1 / psy_rd=1.00:0.00 / mixed_ref=0 / me_range=16 / chroma_me=1 / trellis=0 / 8x8dct=0 / cqm=0 / deadzone=21,11 / fast_pskip=1 / chroma_qp_offset=0 / threads=8 / lookahead_threads=1 / sliced_threads=0 / nr=0 / decimate=1 / interlaced=0 / bluray_compat=0 / constrained_intra=0 / bframes=0 / weightp=2 / keyint=250 / keyint_min=25 / scenecut=40 / intra_refresh=0 / rc_lookahead=40 / rc=abr / mbtree=1 / bitrate=1639 / ratetol=1.0 / qcomp=0.60 / qpmin=10 / qpmax=51 / qpstep=4 / ip_ratio=1.41 / aq=1:1.00

    Аудио
    Идентификатор : 1
    Формат : MPEG Audio
    Версия формата : Version 1
    Профиль формата : Layer 3
    Режим : Joint stereo
    Идентификатор кодека : 55
    Идентификатор кодека/Подсказка : MP3
    Продолжительность : 1 ч. 45 м.
    Вид битрейта : Постоянный
    Битрейт : 256 Кбит/сек
    Каналы : 2 канала
    Частота : 44,1 КГц
    Метод сжатия : С потерями
    Размер потока : 193 Мбайт (14%)
    Выравнивание : Соединение по промежуткам
    Продолжительность промежутка : 42 мс. (1,00 видеокадр)
    Время предзагрузки промежутка : 522 мс.
    Скриншоты для ознакомления





    Размер скачиваемого торрента: 1.39 GB (1496471552 Bytes)

    Восточный ветер / Ostwind - Zusammen sind wir frei (2013) DVDRip | L1 торрент скачать бесплатно
    загрузка...
    Рейтинг →
     (голосов: 1, оценка 4/5, голосовать можно 1 раз )

    Другие торренты по теме:

  • Восточный ветер / Ostwind - Zusammen sind wir frei (2013) HDRip | L1 торрент скачать бесплатно
  • Восточный ветер / Ostwind - Zusammen sind wir frei (2013) BDRip 1080p от CINEMANIA | L1 торрент скачать бесплатно
  • Восточный ветер / Ostwind - Zusammen sind wir frei (2013) BDRip 720p от CINEMANIA | L1 торрент скачать бесплатно


    • Комментарии (0):

      Информация

      Информация

        Посетители, находящиеся в группе Гости, не могут оставлять комментарии в данной новости.

        ↓ Меню



        ↓ Опрос

        А Вы добавили сайт в закладки?
        Да
        Не


        Top 10 за неделю (Фильмы)