.
Авторизация | Регистрация
» » Судья / The Judge (2001) DVDRip от NovaLan торрент скачать бесплатно




    Судья / The Judge (2001) DVDRip от NovaLan торрент скачать бесплатно

    Опубликовал: Админ | Дата: 27-02-2015, 11:10 | Просмотров: 249





    Снималось в: США
    Создали в: Jaffe / Braunstein Films, NBC Studios, Pebblehut Productions
    Категория жанра: Детектив
    Создали в: 2001

    Время просмотра: 2 х ~ 01:21:00


    Перевод текста: Профессиональный многоголосый

    Главный режиссер: Мик Гэррис


    Актеры: Крис Нот, Эдвард Джеймс Олмос, Лолита Давидович, Чарльз Дёрнинг, Джон Терри, Марк Блум, Хайди Марк, Питер МакНейл, Соня Брага, Алек МакКлюр


    Сюжет: Когда судье Акосте предъявляют обвинение в вымогательстве денег с проститутки, оказавшейся полицейской под прикрытием, мало кто проникается к нему сочувствием, включая адвоката Мадриани. Судья пользуется скандальной репутацией. Защищать такого человека будет нелегко, принимая во внимание не желающих сотрудничать свидетелей, полицейскую коррупцию, опасное честолюбие обвинителя и угрозы в адрес адвоката. Но, несмотря на их старинную вражду, Акосте приходится просить защищать его именно Мадриани. После жестокого убийства сотрудницы полиции, подставившей Акосту, судье предъявляют новое обвинение. Все улики указывают на него и ему крайне необходим хороший адвокат.



    Исходник: DVD5 R5

    Тип релиза: DVDRip

    Контейнер: AVI


    Информация о видео: XviD, ~ 2059 Кбит/с, 704х528
    Информация о звуке: АС3, 5 ch, 384 Кбит/с



    MediaInfo
    Общее
    Полное имя : D:1АААСУДЬЯ1 серия.avi
    Формат : AVI
    Формат/Информация : Audio Video Interleave
    Размер файла : 1,37 Гбайт
    Продолжительность : 1 ч. 19 м.
    Общий поток : 2449 Кбит/сек
    Программа кодирования : VirtualDubMod 1.5.10.3 | www.virtualdub-fr.org || (build 2550/release)
    Библиотека кодирования : VirtualDubMod build 2550/release

    Видео
    Идентификатор : 0
    Формат : MPEG-4 Visual
    Профиль формата : Advanced Simple@L5
    Параметр BVOP формата : 2
    Параметр QPel формата : Нет
    Параметр GMC формата : Без точки перехода
    Параметр матрицы формата : Default (MPEG)
    Идентификатор кодека : XVID
    Идентификатор кодека/Подсказка : XviD
    Продолжительность : 1 ч. 19 м.
    Битрейт : 2056 Кбит/сек
    Ширина : 704 пикселя
    Высота : 528 пикселей
    Соотношение сторон : 4:3
    Частота кадров : 23,976 кадра/сек
    Цветовое пространство : YUV
    Субдискретизация насыщенности : 4:2:0
    Битовая глубина : 8 бит
    Тип развёртки : Прогрессивная
    Метод сжатия : С потерями
    Бит/(Пиксели*Кадры) : 0.231
    Размер потока : 1,15 Гбайт (84%)
    Библиотека кодирования : XviD 1.2.1 (UTC 2008-12-04)

    Аудио
    Идентификатор : 1
    Формат : AC-3
    Формат/Информация : Audio Coding 3
    Расширение режима : CM (complete main)
    Параметр Endianness формата : Big
    Идентификатор кодека : 2000
    Продолжительность : 1 ч. 19 м.
    Вид битрейта : Постоянный
    Битрейт : 384 Кбит/сек
    Каналы : 5 каналов
    Расположение каналов : Front: L C R, Side: L R
    Частота : 48,0 КГц
    Битовая глубина : 16 бит
    Метод сжатия : С потерями
    Размер потока : 220 Мбайт (16%)
    Выравнивание : Разделение по промежуткам
    Продолжительность промежутка : 42 мс. (1,00 видеокадр)
    Время предзагрузки промежутка : 500 мс.







    Скриншоты для ознакомления




    Релиз группа:

    Автор рипа:
    Залил: YArl
    Размер скачиваемого торрента: 2.74 GB (2936705024 Bytes)

    Судья / The Judge (2001) DVDRip от NovaLan торрент скачать бесплатно
    загрузка...
    Рейтинг →
     (голосов: 1, оценка 5/5, голосовать можно 1 раз )

    Другие торренты по теме:

  • Судья Дредд / Dredd (2012) HDRip от Scarabey | L1 торрент скачать бесплатно
  • Судья Дредд 3D / Dredd 3D (2012) BDRemux | L1 торрент скачать бесплатно
  • Судья Дредд / Dredd (2012) HDRip | Лицензия торрент скачать бесплатно
  • Судья Дредд 3D / Dredd 3D (2012) BDRip 720p от DHT-Movies торрент скачать бесплатно
  • Ночь страшного суда / Judgment Nightpic (1993) DVDRip-AVC торрент скачать бесплатно
  • OST - Судья Дредд 3D / Dredd 3D (2012) MP3 торрент скачать бесплатно
  • Закон и порядок: Суд присяжных / Law Order: Trial by Jury (2005) HDTVRip | P торрент скачать бесплатно
  • Право голоса. Наркомания: суд приговорит к лечению (2013) WEBRip торрент скачать бесплатно


    • Комментарии (0):

      Информация

      Информация

        Посетители, находящиеся в группе Гости, не могут оставлять комментарии в данной новости.

        ↓ Меню



        ↓ Опрос

        А Вы добавили сайт в закладки?
        Да
        Не


        Top 10 за неделю (Фильмы)