.
Авторизация | Регистрация
Хочешь лучшие торренты? Добавь свой email!
Добавить
» » Прогулки с динозаврами / Walking with Dinosaurs (2013) BDRip-AVC | D торрент скачать бесплатно




    Прогулки с динозаврами / Walking with Dinosaurs (2013) BDRip-AVC | D торрент скачать бесплатно

    Опубликовал: Админ | Дата: 27-02-2015, 11:10 | Просмотров: 333



    Русское название: Прогулки с динозаврами
    Русское название в мировом прокате: Walking with Dinosaurs
    Создали в: 2013
    Категория жанра: Семейный
    Главный режиссер: Бэрри Кук, Нил Найтингейл
    Актеры: Чарли Роу, Карл Урбан, Ангури Райс, Джон Легуизамо, Джастин Лонг, Скайлер Стоун, Тия Сиркар, Клэй Сэвадж, Джуд Тинсели, Мэри Мэтилин Маусер

    Сюжет фильма:
    Прогулки с динозаврами — это увлекательное путешествие с полным погружением в 3D-реальность, созданную по инновационной технологии CGI. Мы увидим, как выглядели динозавры, как они жили и с какими опасностями им пришлось столкнуться. Главный герой истории — храбрый динозаврик Патчи, он самый маленький в семье, но именно ему предстоит стать лидером и спасти своих сородичей.





    Снималось в: США, Великобритания, Индия
    Киностудия: BBC Earth, Animal Logic, BBC Worldwide, Evergreen Films, Reliance Big Entertainment
    Время просмотра: 01:27:23
    Перевод текста: Дублированный (Лицензия)
    Субтитры: Русские, английские

    Кодек для видео: H.264
    Тип видео: MKV
    Качество фильма: BDRip-AVC (Blu-Ray Remux (1080р))
    Информация о видео: MPEG-4 AVC, 2650 Кбит/с, 1024х424
    Информация о звуке: Русский, английский, украинский (АС3, 6 ch, 448 Кбит/с)

    MI
    x264 info: frame I:1012 Avg QP:17.90 size:109051
    x264 info: frame P:31773 Avg QP:20.31 size: 27614
    x264 info: frame B:92923 Avg QP:22.24 size: 8049

    Video
    ID : 1
    Format : AVC
    Format/Info : Advanced Video Codec
    Format profile : High@L4.1
    Format settings, CABAC : Yes
    Format settings, ReFrames : 8 frames
    Codec ID : V_MPEG4/ISO/AVC
    Duration : 1h 27mn
    Bit rate : 2 650 Kbps
    Width : 1 024 pixels
    Height : 424 pixels
    Display aspect ratio : 2.40:1
    Frame rate mode : Constant
    Frame rate : 23.976 fps
    Color space : YUV
    Chroma subsampling : 4:2:0
    Bit depth : 8 bits
    Scan type : Progressive
    Bits/(Pixel*Frame) : 0.255
    Stream size : 1.57 GiB (64%)
    Writing library : x264 core 125 r2200 999b753
    Encoding settings : cabac=1 / ref=8 / deblock=1:-2:-2 / analyse=0x3:0x113 / me=umh / subme=9 / psy=1 / psy_rd=1.00:0.00 / mixed_ref=1 / me_range=32 / chroma_me=1 / trellis=2 / 8x8dct=1 / cqm=0 / deadzone=21,11 / fast_pskip=0 / chroma_qp_offset=-2 / threads=6 / lookahead_threads=1 / sliced_threads=0 / nr=0 / decimate=0 / interlaced=0 / bluray_compat=0 / constrained_intra=0 / bframes=8 / b_pyramid=2 / b_adapt=2 / b_bias=0 / direct=3 / weightb=1 / open_gop=0 / weightp=2 / keyint=240 / keyint_min=23 / scenecut=40 / intra_refresh=0 / rc=2pass / mbtree=0 / bitrate=2650 / ratetol=1.0 / qcomp=0.60 / qpmin=0 / qpmax=69 / qpstep=4 / cplxblur=20.0 / qblur=0.5 / ip_ratio=1.40 / pb_ratio=1.30 / aq=1:1.10
    Language : English
    Default : Yes
    Forced : No

    Audio #1
    ID : 2
    Format : AC-3
    Format/Info : Audio Coding 3
    Mode extension : CM (complete main)
    Format settings, Endianness : Big
    Codec ID : A_AC3
    Duration : 1h 27mn
    Bit rate mode : Constant
    Bit rate : 448 Kbps
    Channel(s) : 6 channels
    Channel positions : Front: L C R, Side: L R, LFE
    Sampling rate : 48.0 KHz
    Bit depth : 16 bits
    Compression mode : Lossy
    Stream size : 280 MiB (11%)
    Title : Дублированный
    Language : Russian
    Default : Yes
    Forced : No

    Audio #2
    ID : 3
    Format : AC-3
    Format/Info : Audio Coding 3
    Mode extension : CM (complete main)
    Format settings, Endianness : Big
    Codec ID : A_AC3
    Duration : 1h 27mn
    Bit rate mode : Constant
    Bit rate : 448 Kbps
    Channel(s) : 6 channels
    Channel positions : Front: L C R, Side: L R, LFE
    Sampling rate : 48.0 KHz
    Bit depth : 16 bits
    Compression mode : Lossy
    Stream size : 280 MiB (11%)
    Title : Оригинал
    Language : English
    Default : No
    Forced : No

    Audio #3
    ID : 4
    Format : AC-3
    Format/Info : Audio Coding 3
    Mode extension : CM (complete main)
    Format settings, Endianness : Big
    Codec ID : A_AC3
    Duration : 1h 27mn
    Bit rate mode : Constant
    Bit rate : 448 Kbps
    Channel(s) : 6 channels
    Channel positions : Front: L C R, Side: L R, LFE
    Sampling rate : 48.0 KHz
    Bit depth : 16 bits
    Compression mode : Lossy
    Stream size : 280 MiB (11%)
    Title : Украинский
    Language : Ukrainian
    Default : No
    Forced : No

    Text #1
    ID : 5
    Format : UTF-8
    Codec ID : S_TEXT/UTF8
    Codec ID/Info : UTF-8 Plain Text
    Title : Русские
    Language : Russian
    Default : Yes
    Forced : No

    Text #2
    ID : 6
    Format : UTF-8
    Codec ID : S_TEXT/UTF8
    Codec ID/Info : UTF-8 Plain Text
    Title : Английские
    Language : English
    Default : No
    Forced : No

    Text #3
    ID : 7
    Format : UTF-8
    Codec ID : S_TEXT/UTF8
    Codec ID/Info : UTF-8 Plain Text
    Title : Английские
    Language : English
    Default : No
    Forced : No

    Menu
    00:00:00.000 : en:00:00:00.000
    00:01:44.771 : en:00:01:44.771
    00:05:21.196 : en:00:05:21.196
    00:07:27.989 : en:00:07:27.989
    00:12:06.351 : en:00:12:06.351
    00:14:47.220 : en:00:14:47.220
    00:17:04.190 : en:00:17:04.190
    00:18:30.609 : en:00:18:30.609
    00:21:47.389 : en:00:21:47.389
    00:24:30.761 : en:00:24:30.761
    00:27:07.459 : en:00:27:07.459
    00:28:28.206 : en:00:28:28.206
    00:30:40.756 : en:00:30:40.756
    00:32:58.643 : en:00:32:58.643
    00:37:38.006 : en:00:37:38.006
    00:42:02.562 : en:00:42:02.562
    00:44:00.096 : en:00:44:00.096
    00:47:36.103 : en:00:47:36.103
    00:50:59.473 : en:00:50:59.473
    00:52:51.043 : en:00:52:51.043
    00:56:49.281 : en:00:56:49.281
    00:58:20.997 : en:00:58:20.997
    01:02:48.973 : en:01:02:48.973
    01:06:45.627 : en:01:06:45.627
    01:10:40.319 : en:01:10:40.319
    01:16:54.485 : en:01:16:54.485
    01:18:40.466 : en:01:18:40.466
    01:20:15.811 : en:01:20:15.811

    Сравнение с раздачей на 2.35 GB (MediaClub) - http://screenshotcomparison.com/comparison/66888/picture:0


    Дата Релиза: 17.03.2014

    Скриншоты для ознакомления





    Размер скачиваемого торрента: 2.44 GB (2619242235 Bytes)

    Прогулки с динозаврами / Walking with Dinosaurs (2013) BDRip-AVC | D торрент скачать бесплатно
    загрузка...
    Рейтинг →
     (голосов: 1, оценка 5/5, голосовать можно 1 раз )

    Другие торренты по теме:

  • Прогулки с динозаврами (2013) скачать через торрент бесплатно
  • Wonderbook: Прогулки с Динозаврами (2013) PS3
  • Прогулки с динозаврами / Walking with Dinosaurs (2013) HDRip | Лицензия скачать через торрент бесплатно
  • Прогулки с динозаврами / Walking with Dinosaurs (2013) BDRip 1080p | Лицензия
  • Прогулки с динозаврами / Walking with Dinosaurs (2013) BDRip 720p | Лицензия
  • Прогулки с динозаврами 3D / Walking with Dinosaurs 3D (2013) BDRip от -=HD-NET=- | КПК | Лицензия
  • Прогулки с динозаврами / Walking with Dinosaurs (2013) BDRip-AVC от MediaClub | Лицензия скачать через торрент бесплатно
  • Прогулки с динозаврами 3D / Walking with Dinosaurs 3D (2013) BDRip-AVC от FilmRus | Лицензия скачать через торрент бесплатно


    • Комментарии (0):

      Информация

      Информация

        Посетители, находящиеся в группе Гости, не могут оставлять комментарии в данной новости.

        ↓ Меню



        ↓ Опрос

        А Вы добавили сайт в закладки?
        Да
        Не


        Top 10 за месяц (Фильмы)