.
Авторизация | Регистрация
» » Кровавый ледник / Blutgletscher / Schlaraffenhaus (2013) BDRip 720p | L1 торрент скачать бесплатно




    Кровавый ледник / Blutgletscher / Schlaraffenhaus (2013) BDRip 720p | L1 торрент скачать бесплатно

    Опубликовал: Админ | Дата: 27-02-2015, 11:10 | Просмотров: 205



    Детально о кино
    Русское название: Кровавый ледник
    Русское название в мировом прокате: Blutgletscher (Schlaraffenhaus)
    Создали в: 2013
    Категория жанра: Ужасы
    Главный режиссер: Марвин Крен
    Актеры: Герхард Либманн, Эдита Маловчич, Бригитта Крен, Сантос, Хилле Бизелер, Петер Кнаак, Феликс Ромер, Вольфганг Пампель, Мурасан Муслу, Михаэль Фуйт

    Сюжет фильма:
    События фильма развернутся в Альпах, где расположилась климатическая станция, на которой со своими коллегами работает техник Янек. Накануне приезда туда новой группы ученых, персонал станции сталкивается с необычным явлением - из ледника начинает сочиться странная жидкость, под воздействием которой все животные начинают мутировать и нападать на людей. Станция превращается в своеобразную крепость для выживших, и все бы хорошо, но позже выясняется, что и люди так же подверглись заражению...




    Снималось в: Австрия
    Киностудия: Allegro Film, Filmfonds Wien, Filmstandort Austria (FISA)
    Время просмотра: 01:37:13
    Перевод текста: Любительский одноголосый den904

    Файл
    Кодек для видео: h.264
    Качество фильма: BDRip 720p
    Информация о видео: AVC, 1280 x 544, ~3082 kbps
    Информация о звуке: Русский / Немецкий: AC-3, 6 ch, 384 kbps

    Семпл

    Скриншоты для ознакомления
    MI
    Общее
    Уникальный идентификатор : 168348648403719580577546155723716462494 (0x7EA6C532C2870C1E037BA147C20E879E)
    Полное имя : G:Кровавый ледник Blutgletscher (Schlaraffenhaus) 2013 ЛО BDRip (720p)Schlaraffenhaus.2013.BDRip.720p.mkv
    Формат : Matroska
    Версия формата : Version 2
    Размер файла : 2,67 Гбайт
    Продолжительность : 1 ч. 37 м.
    Режим общего битрейта : Переменный
    Общий поток : 3928 Кбит/сек
    Программа кодирования : Lavf51.12.1
    Библиотека кодирования : Lavf51.12.1

    Видео
    Идентификатор : 1
    Формат : AVC
    Формат/Информация : Advanced Video Codec
    Профиль формата : Baseline@L3.1
    Параметр CABAC формата : Нет
    Параметр ReFrames формата : 1 кадр
    Параметр GOP формата : M=1, N=12
    Идентификатор кодека : V_MPEG4/ISO/AVC
    Продолжительность : 1 ч. 37 м.
    Вид битрейта : Переменный
    Битрейт : 3082 Кбит/сек
    Максимальный битрейт : 4740 Кбит/сек
    Ширина : 1280 пикселей
    Высота : 544 пикселя
    Соотношение сторон : 2,35:1
    Режим частоты кадров : Постоянный
    Частота кадров : 24,000 кадра/сек
    Цветовое пространство : YUV
    Субдискретизация насыщенности : 4:2:0
    Битовая глубина : 8 бит
    Тип развёртки : Прогрессивная
    Бит/(Пиксели*Кадры) : 0.184
    Размер потока : 2,09 Гбайт (78%)
    Default : Да
    Forced : Нет

    Аудио #1
    Идентификатор : 2
    Формат : AC-3
    Формат/Информация : Audio Coding 3
    Расширение режима : CM (complete main)
    Параметр Endianness формата : Big
    Идентификатор кодека : A_AC3
    Продолжительность : 1 ч. 37 м.
    Вид битрейта : Постоянный
    Битрейт : 384 Кбит/сек
    Каналы : 6 каналов
    Расположение каналов : Front: L C R, Side: L R, LFE
    Частота : 48,0 КГц
    Битовая глубина : 16 бит
    Метод сжатия : С потерями
    Размер потока : 267 Мбайт (10%)
    Язык : Russian
    Default : Да
    Forced : Нет

    Аудио #2
    Идентификатор : 3
    Формат : AC-3
    Формат/Информация : Audio Coding 3
    Расширение режима : CM (complete main)
    Параметр Endianness формата : Big
    Идентификатор кодека : A_AC3
    Продолжительность : 1 ч. 37 м.
    Вид битрейта : Постоянный
    Битрейт : 384 Кбит/сек
    Каналы : 6 каналов
    Расположение каналов : Front: L C R, Side: L R, LFE
    Частота : 48,0 КГц
    Битовая глубина : 16 бит
    Метод сжатия : С потерями
    Размер потока : 267 Мбайт (10%)
    Язык : German
    Default : Да
    Forced : Нет

    Размер скачиваемого торрента: 2.67 GB (2863890561 Bytes)

    Кровавый ледник / Blutgletscher / Schlaraffenhaus (2013) BDRip 720p | L1 торрент скачать бесплатно
    загрузка...
    Рейтинг →
     (голосов: 1, оценка 5/5, голосовать можно 1 раз )

    Другие торренты по теме:

  • Кровавый ледник / Schlaraffenhaus / Blood Glacier / The Station (2013) BDRip 1080p от CINEMANIA | L1 торрент скачать бесплатно
  • Кровавый ледник / Schlaraffenhaus / Blood Glacier / The Station (2013) HDRip от CINEMANIA | L1 торрент скачать бесплатно
  • Кровавый ледник / Blutgletscher / Schlaraffenhaus (2013) HDRip-AVC от Leo.pard | L1 торрент скачать бесплатно


    • Комментарии (0):

      Информация

      Информация

        Посетители, находящиеся в группе Гости, не могут оставлять комментарии в данной новости.

        ↓ Меню



        ↓ Опрос

        А Вы добавили сайт в закладки?
        Да
        Не


        Top 10 за неделю (Фильмы)