.
Авторизация | Регистрация
Хочешь лучшие торренты? Добавь свой email!
Добавить
» » Поэзия / Shi / Poetry (2010) BDRip 1080p by msltel | P, L1 торрент скачать бесплатно




    Поэзия / Shi / Poetry (2010) BDRip 1080p by msltel | P, L1 торрент скачать бесплатно

    Опубликовал: Админ | Дата: 27-02-2015, 11:10 | Просмотров: 222



    Русское название: Поэзия
    Русское название в мировом прокате: Shi / Poetry
    Создали в: 2010
    Категория жанра: Драма
    Снималось в: Южная Корея, UniKorea Pictures, Pine House Film
    Главный режиссер: Ли Чан Дон
    Актеры: Юн Чжон Хи, Ли Да Вит, Ким Хи Ра, Нэ Сан Ан, Минг-Шин Парк, Ен-Тхэк Ким, Ким Чон Гу

    Сюжет фильма: В маленьком городе провинции Кенгидо, где протекает река Хан, живёт Миджа со своим внуком-школьником. Эксцентричная и любопытная женщина очень любит заботиться о своей внешности и носит шляпы, расписанные цветами, и яркую одежду. Случайно она попадает на курсы обучения стихосложению в местном доме культуры. Впервые в жизни Миджа пишет стихотворение. Она ищет красоту в своём обычном окружении, на которое никогда не обращала особого внимания. Ей кажется, что теперь она наконец заметила то, что раньше просто не видела, и приходит в восторг. Однако неожиданные события заставляют женщину осознать, что жизнь не так прекрасна, как ей представлялось...

    Качество фильма: BDRip 1080p
    Размер скачиваемого торрента: 15.69 ГБ
    Время просмотра: 02:19:21

    Информация о видео: MPEG-4 AVC, 13.6 Mбит/с, 1920x1036
    Информация о звуке 1: русский, 48 kHz, AC3, 2 ch, 224 kbps avg, Профессиональный многоголосый, R5
    Информация о звуке 2: русский, 48 kHz, AC3, 6 ch, 448 kbps avg, Любительский одноголосый, DeMoN

    Внешние файлы
    Информация о звуке: корейский, 48 kHz, DTS, 6 ch, 1509 kbps avg, Оригинал
    Субтитры: русские
    Субтитры: английские

    Исходник: FreeZZ (Кинозал)

    Сравнение с исходником



    Награды
    Азиатская киноакадемия, 2011 год
    Победитель (2):
    Лучший режиссер (Ли Чан Дон)
    Лучшая работа сценариста

    Номинации (1):
    Лучший фильм

    Каннский кинофестиваль, 2010 год
    Победитель (2):
    Лучший сценарий
    Приз экуменического (христианского) жюри - особое упоминание

    Номинации (1):
    Золотая пальмовая ветвь
    MediaInfo Лог х264
    Общее
    Полное имя : D:VideoPoezija.2010.x264.BDRip.1080pPoezija.2010.eng.srt
    Формат : SubRip
    Размер файла : 94,5 Кбайт

    Текст
    Формат : SubRip
    Метод сжатия : Без потерь

    Общее
    Полное имя : D:VideoPoezija.2010.x264.BDRip.1080pPoezija.2010.Original.kor.dts
    Формат : DTS
    Формат/Информация : Digital Theater Systems
    Размер файла : 1,47 Гбайт
    Продолжительность : 2 ч. 19 м.
    Режим общего битрейта : Постоянный
    Общий поток : 1509 Кбит/сек

    Аудио
    Формат : DTS
    Формат/Информация : Digital Theater Systems
    Режим : 16
    Параметр Endianness формата : Big
    Продолжительность : 2 ч. 19 м.
    Вид битрейта : Постоянный
    Битрейт : 1509 Кбит/сек
    Каналы : 6 каналов
    Расположение каналов : Front: L C R, Side: L R, LFE
    Частота : 48,0 КГц
    Битовая глубина : 24 бит
    Метод сжатия : С потерями
    Размер потока : 1,47 Гбайт (100%)

    Общее
    Полное имя : D:VideoPoezija.2010.x264.BDRip.1080pPoezija.2010.rus.srt
    Формат : SubRip
    Размер файла : 123 Кбайт

    Текст
    Формат : SubRip
    Метод сжатия : Без потерь

    Общее
    Уникальный идентификатор : 179361050906531081206100917035645766047 (0x86EFAE8FAC1B28D4A042812B038B899F)
    Полное имя : D:VideoPoezija.2010.x264.BDRip.1080pPoezija.2010.x264.BDRip.1080p.mkv
    Формат : Matroska
    Версия формата : Version 4 / Version 2
    Размер файла : 14,2 Гбайт
    Продолжительность : 2 ч. 19 м.
    Общий поток : 14,6 Мбит/сек
    Дата кодирования : UTC 2014-03-17 02:43:26
    Программа кодирования : mkvmerge v6.7.0 (;Back to the Ground;) 64bit built on Jan 8 2014 15:10:52
    Библиотека кодирования : libebml v1.3.0 libmatroska v1.4.1

    Видео
    Идентификатор : 1
    Формат : AVC
    Формат/Информация : Advanced Video Codec
    Профиль формата : High@L4.1
    Параметр CABAC формата : Да
    Параметр ReFrames формата : 4 кадра
    Идентификатор кодека : V_MPEG4/ISO/AVC
    Продолжительность : 2 ч. 19 м.
    Битрейт : 13,6 Мбит/сек
    Ширина : 1920 пикселей
    Высота : 1036 пикселей
    Соотношение сторон : 1,85:1
    Режим частоты кадров : Постоянный
    Частота кадров : 23,976 кадра/сек
    Цветовое пространство : YUV
    Субдискретизация насыщенности : 4:2:0
    Битовая глубина : 8 бит
    Тип развёртки : Прогрессивная
    Бит/(Пиксели*Кадры) : 0.286
    Размер потока : 13,3 Гбайт (93%)
    Заголовок : BDRip -- STarankov
    Библиотека кодирования : x264 core 138 r2358 9e941d1
    Залил: msltel
    Размер скачиваемого торрента: 15.69 GB (16843142534 Bytes)


    Поэзия / Shi / Poetry (2010) BDRip 1080p by msltel | P, L1 торрент скачать бесплатно
    загрузка...
    Рейтинг →
     (голосов: 1, оценка 5/5, голосовать можно 1 раз )

    Другие торренты по теме:

  • Поэзия / Shi / Poetry (2010) Blu-Ray Remux 1080p
  • Поэзия / Shi / Poetry (2010) BDRip 720p by msltel | P, L1 скачать через торрент бесплатно
  • Поэзия / Shi / Poetry (2010) BDRip by msltel | P, L1 скачать через торрент бесплатно
  • Фридрих Шиллер - Поэзия. Биография / Классика / 2008 / Илья Прудовский / MP3
  • Михаил Васильевич Ломоносов, Гаврила Романович Державин, Иван Андреевич Крылов - Псалтирь Поэтическая / Поэзия / 2008 / Николай Мартон / MP3
  • Бесконечная поэзия / Poesa sin fin (2016) WEBRip | L1


    • Комментарии (0):

      Информация

      Информация

        Посетители, находящиеся в группе Гости, не могут оставлять комментарии в данной новости.

        ↓ Меню



        ↓ Опрос

        А Вы добавили сайт в закладки?
        Да
        Не


        Top 10 за месяц (Фильмы)