.
Авторизация | Регистрация
Хочешь лучшие торренты? Добавь свой email!
Добавить
» » 47 ронинов / 47 Ronin (2013) WEB-DLRip-AVC | Звук с TS скачать через торрент бесплатно




    47 ронинов / 47 Ronin (2013) WEB-DLRip-AVC | Звук с TS скачать через торрент бесплатно

    Опубликовал: Админ | Дата: 27-02-2015, 11:10 | Просмотров: 232



    Детально о кино
    Русское название: 47 ронинов
    Русское название в мировом прокате: 47 Ronin
    Создали в: 2013
    Категория жанра: фэнтези, боевик, приключения
    Главный режиссер: Карл Ринш
    Актеры: Киану Ривз, Хироюки Санада, Ко Шибасаки, Таданобу Асано, Мин Танака, Джин Аканиши, Масаёси Ханеда, Хироси Согабэ, Такато Йонемото, Хироси Ямада

    Сюжет фильма: Это Рождество, Вам доступна вечность
    Таинственный странник, преданный всеми, проданный в рабство, избранный судьбой вершить месть, станет одним из 47 воинов, бросивших вызов смерти. Явившись из другого мира, он восстанет против темных сил, чтобы защитить свою запретную любовь.




    Снималось в: США
    Киностудия: H2F Entertainment, Mid Atlantic Films, Moving Picture Company (MPC)
    Время просмотра: 01:58:34
    Перевод текста: Дублированное звук с TS

    Файл
    Кодек для видео: h.264
    Качество фильма: WEB-DLRip-AVC
    Информация о видео: AVC, 1024 x 424, ~1817 kbps
    Информация о звуке: Русский: MP3, 192 kb/s (2 ch) / Английский: AC3, 384 kb/s (6 ch)
    Субтитры: нет

    Семпл

    Скриншоты для ознакомления
    MI
    Общее
    Уникальный идентификатор : 168348648403719580577546155723716462494 (0x7EA6C532C2870C1E037BA147C20E879E)
    Полное имя : G:47 ронинов 47 Ronin (2013) WEB-DLRip-AVC Звук с TS47.R0n1n0v.2013.Dt.WEB-DLRip-AVC.mkv
    Формат : Matroska
    Версия формата : Version 2
    Размер файла : 2,02 Гбайт
    Продолжительность : 1 ч. 58 м.
    Режим общего битрейта : Переменный
    Общий поток : 2442 Кбит/сек
    Программа кодирования : Lavf51.12.1
    Библиотека кодирования : Lavf51.12.1

    Видео
    Идентификатор : 1
    Формат : AVC
    Формат/Информация : Advanced Video Codec
    Профиль формата : Baseline@L3.1
    Параметр CABAC формата : Нет
    Параметр ReFrames формата : 1 кадр
    Параметр GOP формата : M=1, N=12
    Идентификатор кодека : V_MPEG4/ISO/AVC
    Продолжительность : 1 ч. 58 м.
    Вид битрейта : Переменный
    Битрейт : 1817 Кбит/сек
    Максимальный битрейт : 2790 Кбит/сек
    Ширина : 1024 пикселя
    Высота : 424 пикселя
    Соотношение сторон : 2,40:1
    Режим частоты кадров : Постоянный
    Частота кадров : 23,976 кадра/сек
    Частота кадров в оригинале : 24,000 кадра/сек
    Цветовое пространство : YUV
    Субдискретизация насыщенности : 4:2:0
    Битовая глубина : 8 бит
    Тип развёртки : Прогрессивная
    Бит/(Пиксели*Кадры) : 0.175
    Размер потока : 1,51 Гбайт (74%)
    Язык : English
    Default : Да
    Forced : Нет

    Аудио #1
    Идентификатор : 2
    Формат : AC-3
    Формат/Информация : Audio Coding 3
    Расширение режима : CM (complete main)
    Параметр Endianness формата : Big
    Идентификатор кодека : A_AC3
    Продолжительность : 1 ч. 58 м.
    Вид битрейта : Постоянный
    Битрейт : 192 Кбит/сек
    Каналы : 2 канала
    Расположение каналов : Front: L R
    Частота : 48,0 КГц
    Битовая глубина : 16 бит
    Метод сжатия : С потерями
    Размер потока : 163 Мбайт (8%)
    Язык : Russian
    Default : Да
    Forced : Нет

    Аудио #2
    Идентификатор : 3
    Формат : AC-3
    Формат/Информация : Audio Coding 3
    Расширение режима : CM (complete main)
    Параметр Endianness формата : Big
    Идентификатор кодека : A_AC3
    Продолжительность : 1 ч. 58 м.
    Вид битрейта : Постоянный
    Битрейт : 384 Кбит/сек
    Каналы : 6 каналов
    Расположение каналов : Front: L C R, Side: L R, LFE
    Частота : 48,0 КГц
    Битовая глубина : 16 бит
    Метод сжатия : С потерями
    Размер потока : 326 Мбайт (16%)
    Язык : English
    Default : Да
    Forced : Нет

    Размер скачиваемого торрента: 2.02 GB (2171514751 Bytes)

    47 ронинов / 47 Ronin (2013) WEB-DLRip-AVC | Звук с TS скачать через торрент бесплатно
    загрузка...
    Рейтинг →
     (голосов: 1, оценка 3/5, голосовать можно 1 раз )

    Другие торренты по теме:

  • 47 ронинов / 47 Ronin (2013) HD 720p | L1 | Трейлер
  • OST - 47 Ронинов / 47 Ronin (2013) MP3 скачать через торрент бесплатно
  • 47 ронинов / 47 Ronin (2013) CAMRip
  • 47 ронинов / 47 Ronin (2013) TS скачать через торрент бесплатно
  • 47 ронинов / 47 Ronin (2013) TS *PROPER* скачать через торрент бесплатно
  • 47 ронинов / 47 Ronin (2013) WEBRip | Звук с TS скачать через торрент бесплатно
  • 47 ронинов / 47 Ronin (2013) WEBRip-AVC | Звук с TS *PROPER* скачать через торрент бесплатно
  • 47 ронинов / 47 Ronin (2013) DVDScr | Звук с TS


    • Комментарии (0):

      Информация

      Информация

        Посетители, находящиеся в группе Гости, не могут оставлять комментарии в данной новости.

        ↓ Меню



        ↓ Опрос

        А Вы добавили сайт в закладки?
        Да
        Не


        Top 10 за месяц (Фильмы)