.
Авторизация | Регистрация
» » Невероятная жизнь Уолтера Митти / The Secret Life of Walter Mitty (2013) WEB-DLRip-AVC | Звук с TS скачать через торрент бесплатно




    Невероятная жизнь Уолтера Митти / The Secret Life of Walter Mitty (2013) WEB-DLRip-AVC | Звук с TS скачать через торрент бесплатно

    Опубликовал: Админ | Дата: 27-02-2015, 11:10 | Просмотров: 279



    Детально о кино
    Русское название: Невероятная жизнь Уолтера Митти
    Русское название в мировом прокате: The Secret Life of Walter Mitty
    Создали в: 2013
    Категория жанра: приключения, мелодрама, драма, комедия, фэнтези
    Главный режиссер: Бен Стиллер
    Актеры: Бен Стиллер,Кристен Уиг, Джон Дэйли, Кэтрин Хан, Теренс Берни Хайнс, Адам Скотт, Пол Фицджералд, Грэйс Рекс, Алекс Анфанджер, Аманда Нафтон

    Сюжет фильма: Прекратите мечтать. Начните жить
    Кто сказал, что в сердце маленького человека не могут жить великие мечты? Даже скромному и незаметному служащему хочется иногда совершить пусть безумные, но геройские поступки, поверить в свою силу и мужество. Почему всех спасать должны исключительно супермены?




    Снималось в: США
    Киностудия: 20th Century Fox Film Corporation, Red House Entertainment, Truenorth Productions
    Время просмотра: 01:54:50
    Перевод текста: Дублированное звук с TS

    Файл
    Кодек для видео: h.264
    Качество фильма: WEB-DLRip-AVC
    Информация о видео: AVC, 1024 x 428, ~1810 kbps
    Информация о звуке: Русский: AC-3, 2 ch, 192 kbps / Английский: AC-3, 6 ch, 448 kbps

    Семпл

    Скриншоты для ознакомления
    MI
    Общее
    Уникальный идентификатор : 168348648403719580577546155723716462494 (0x7EA6C532C2870C1E037BA147C20E879E)
    Полное имя : G:ДИСК 21.ФИЛЬМЫНевероятная жизнь Уолтера Митти The Secret Life of Walter Mitty (2013) WEB-DLRip-AVC Звук с TSJizn.Waltera.Mitty.2013.Dt.WEB-DLRip-AVC.mkv
    Формат : Matroska
    Версия формата : Version 2
    Размер файла : 1,95 Гбайт
    Продолжительность : 1 ч. 54 м.
    Режим общего битрейта : Переменный
    Общий поток : 2435 Кбит/сек
    Программа кодирования : Lavf51.12.1
    Библиотека кодирования : Lavf51.12.1

    Видео
    Идентификатор : 1
    Формат : AVC
    Формат/Информация : Advanced Video Codec
    Профиль формата : Baseline@L3.1
    Параметр CABAC формата : Нет
    Параметр ReFrames формата : 1 кадр
    Параметр GOP формата : M=1, N=12
    Идентификатор кодека : V_MPEG4/ISO/AVC
    Продолжительность : 1 ч. 54 м.
    Вид битрейта : Переменный
    Битрейт : 1810 Кбит/сек
    Максимальный битрейт : 2790 Кбит/сек
    Ширина : 1024 пикселя
    Высота : 428 пикселей
    Соотношение сторон : 2,40:1
    Соотношение сторон в оригинале : 2,40:1
    Режим частоты кадров : Постоянный
    Частота кадров : 23,976 кадра/сек
    Частота кадров в оригинале : 24,000 кадра/сек
    Цветовое пространство : YUV
    Субдискретизация насыщенности : 4:2:0
    Битовая глубина : 8 бит
    Тип развёртки : Прогрессивная
    Бит/(Пиксели*Кадры) : 0.172
    Размер потока : 1,45 Гбайт (74%)
    Язык : English
    Default : Да
    Forced : Нет

    Аудио #1
    Идентификатор : 2
    Формат : AC-3
    Формат/Информация : Audio Coding 3
    Расширение режима : CM (complete main)
    Параметр Endianness формата : Big
    Идентификатор кодека : A_AC3
    Продолжительность : 1 ч. 54 м.
    Вид битрейта : Постоянный
    Битрейт : 192 Кбит/сек
    Каналы : 2 канала
    Расположение каналов : Front: L R
    Частота : 48,0 КГц
    Битовая глубина : 16 бит
    Метод сжатия : С потерями
    Размер потока : 158 Мбайт (8%)
    Язык : Russian
    Default : Да
    Forced : Нет

    Аудио #2
    Идентификатор : 3
    Формат : AC-3
    Формат/Информация : Audio Coding 3
    Расширение режима : CM (complete main)
    Параметр Endianness формата : Big
    Идентификатор кодека : A_AC3
    Продолжительность : 1 ч. 54 м.
    Вид битрейта : Постоянный
    Битрейт : 384 Кбит/сек
    Каналы : 6 каналов
    Расположение каналов : Front: L C R, Side: L R, LFE
    Частота : 48,0 КГц
    Битовая глубина : 16 бит
    Метод сжатия : С потерями
    Размер потока : 315 Мбайт (16%)
    Язык : English
    Default : Да
    Forced : Нет

    Размер скачиваемого торрента: 1.95 GB (2097016195 Bytes)

    Невероятная жизнь Уолтера Митти / The Secret Life of Walter Mitty (2013) WEB-DLRip-AVC | Звук с TS скачать через торрент бесплатно
    загрузка...
    Рейтинг →
     (голосов: 1, оценка 3/5, голосовать можно 1 раз )

    Другие торренты по теме:

  • Невероятная жизнь Уолтера Митти / The Secret Life of Walter Mitty (2013) TS скачать через торрент бесплатно
  • Невероятная жизнь Уолтера Митти / The Secret Life of Walter Mitty (2013) DVDScr | Звук с TS торрент скачать бесплатно
  • OST - Невероятная жизнь Уолтера Митти / The Secret Life Of Walter Mitty (2013) MP3 торрент скачать бесплатно
  • Невероятная жизнь Уолтера Митти / The Secret Life of Walter Mitty (2013) WEB-DL 720p | Звук с TS скачать через торрент бесплатно
  • Невероятная жизнь Уолтера Митти / The Secret Life of Walter Mitty (2013) WEB-DLRip | Звук с TS скачать через торрент бесплатно
  • Невероятная жизнь Уолтера Митти / The Secret Life of Walter Mitty (2013) WEB-DLRip | Baibako скачать через торрент бесплатно
  • Невероятная жизнь Уолтера Митти / The Secret Life of Walter Mitty (2013) WEB-DLRip от New-Team | P | Baibako торрент скачать бесплатно
  • Невероятная жизнь Уолтера Митти / The Secret Life of Walter Mitty (2013) WEB-DLRip | iTunes скачать через торрент бесплатно


    • Комментарии (0):

      Информация

      Информация

        Посетители, находящиеся в группе Гости, не могут оставлять комментарии в данной новости.

        ↓ Меню



        ↓ Опрос

        А Вы добавили сайт в закладки?
        Да
        Не


        Top 10 за неделю (Фильмы)