.
Авторизация | Регистрация
Хочешь лучшие торренты? Добавь свой email!
Добавить
» » Управление гневом / Anger Management (2013) HDTVRip | P | LostFilm скачать через торрент бесплатно




    Управление гневом / Anger Management (2013) HDTVRip | P | LostFilm скачать через торрент бесплатно

    Опубликовал: Админ | Дата: 27-02-2015, 11:10 | Просмотров: 263



    Детально о кино
    Русское название: Управление гневом / Anger Management
    Создали в: 2013
    Категория жанра: Комедия
    Главный режиссеры: Боб Коэрр, Энди Кэдифф, Джерри Коэн, Роб Шиллер
    Актеры: Чарли Шин, Майкл Арден, Селма Блэр, Даниела Бобадилла, Бэрри Корбин, Норин ДеВулф, Стивен Тейлор, Бретт Батлер, Альдо Гонзалез, Дерек Ричардсон, Шоуни Смит, Майк Гузман, Джеймс Блэк, Кэтлин Мастандреа, Дэнис Ричардс, Алекс Элла, Майкл Свон, Тони Тодд, Алекс Элла, Мартин Шин, Кристин Эстабрук, Мередит Сэленджер, Мэри Ковальски, Джен Кобер


    Сюжет:
    До своей карьеры терапевта Чарли был в тупике из-за отсутствия перспектив в низшей бейсбольной лиге. Проблема неумения контролировать свой гнев сбила его с пути в высшую лигу. После прохождения курса терапии по борьбе с гневом, он вывел свою команду в высшую лигу и провел один потрясающий сезон любимого сериала, прежде чем старые проблемы вновь не напомнили о себе. В своем финальном матче он пытался ударить себя битой по ноге, в результате чего получил травму, которая положила конец его карьере. Но в итоге эта же травма привела его к нынешней профессии. В то время как Чарли борется со своим гневом, в его жизни процветает хаос. Всё осложняется его отношениями с собственным терапевтом и лучшим другом, бывшей женой, чьи позитивные взгляды на будущее, но при этом плохой выбор мужчин, расстраивают Чарли и их 13-летнюю дочь, имеющую психические расстройства.



    Тех. данные


    Время просмотра: ~ 00:22:00
    Снималось в: США
    Перевод текста: Профессиональный (многоголосый закадровый) LostFilm

    Файл
    Тип видео: AVI
    Качество фильма: HDTVRip
    Информация о видео: XviD, 1915 Кбит/с, 720x400
    Информация о звуке: MP3, 2 ch, 128 Кбит/с
    MI:

    Общее
    Формат : AVI
    Формат/Информация : Audio Video Interleave
    Размер файла : 250 Мбайт
    Продолжительность : 21 м.
    Общий поток : 1630 Кбит/сек
    Программа кодирования : VirtualDubMod 1.5.10.2 (build 2540/release)
    Библиотека кодирования : VirtualDubMod build 2540/release

    Видео
    Идентификатор : 0
    Формат : MPEG-4 Visual
    Профиль формата : Advanced Simple@L5
    Параметр BVOP формата : 1
    Параметр QPel формата : Нет
    Параметр GMC формата : Без точки перехода
    Параметр матрицы формата : Выборочная
    Идентификатор кодека : XVID
    Идентификатор кодека/Подсказка : XviD
    Продолжительность : 21 м.
    Битрейт : 1360 Кбит/сек
    Ширина : 720 пикселей
    Высота : 400 пикселей
    Соотношение сторон : 16:9
    Частота кадров : 23,976 кадра/сек
    Цветовое пространство : YUV
    Субдискретизация насыщенности : 4:2:0
    Битовая глубина : 8 бит
    Тип развёртки : Прогрессивная
    Метод сжатия : С потерями
    Бит/(Пиксели*Кадры) : 0.197
    Размер потока : 209 Мбайт (83%)
    Библиотека кодирования : XviD 73

    Аудио #1
    Идентификатор : 1
    Формат : MPEG Audio
    Версия формата : Version 1
    Профиль формата : Layer 3
    Режим : Joint stereo
    Расширение режима : MS Stereo
    Идентификатор кодека : 55
    Идентификатор кодека/Подсказка : MP3
    Продолжительность : 21 м.
    Вид битрейта : Постоянный
    Битрейт : 128 Кбит/сек
    Каналы : 2 канала
    Частота : 48,0 КГц
    Метод сжатия : С потерями
    Размер потока : 19,7 Мбайт (8%)
    Выравнивание : Соединение по промежуткам
    Продолжительность промежутка : 42 мс. (1,00 видеокадр)
    Время предзагрузки промежутка : 504 мс.
    Библиотека кодирования : LAME3.99r
    Настройки программы : -m j -V 4 -q 2 -lowpass 17 -b 128

    Аудио #2
    Идентификатор : 2
    Формат : MPEG Audio
    Версия формата : Version 1
    Профиль формата : Layer 3
    Режим : Joint stereo
    Расширение режима : MS Stereo
    Идентификатор кодека : 55
    Идентификатор кодека/Подсказка : MP3
    Продолжительность : 21 м.
    Вид битрейта : Постоянный
    Битрейт : 128 Кбит/сек
    Каналы : 2 канала
    Частота : 48,0 КГц
    Метод сжатия : С потерями
    Размер потока : 19,7 Мбайт (8%)
    Выравнивание : Соединение по промежуткам
    Продолжительность промежутка : 42 мс. (1,00 видеокадр)
    Время предзагрузки промежутка : 504 мс.
    Библиотека кодирования : LAME3.99r
    Настройки программы : -m j -V 4 -q 2 -lowpass 17 -b 128
    Скриншоты для ознакомления



    Размер скачиваемого торрента: 13.15 GB (14114760704 Bytes)

    Управление гневом / Anger Management (2013) HDTVRip | P | LostFilm скачать через торрент бесплатно
    загрузка...
    Рейтинг →
     (голосов: 1, оценка 4/5, голосовать можно 1 раз )

    Другие торренты по теме:

  • Управление гневом / Anger Management (2013) HDTVRip 720p | LostFilm
  • Управление гневом / Anger Management (2013) HDTVRip | LostFilm
  • Управление гневом / Anger Management (2013) WEB-DL 1080p | LostFilm
  • Управление гневом / Anger Management (2003) HDRip от Scarabey | D
  • Управление гневом / Anger Management (2013) WEB-DLRip | P | LostFilm скачать через торрент бесплатно
  • Управление гневом / Anger Management (2012-2014) HDTVRip 720р | LostFilm


    • Комментарии (0):

      Информация

      Информация

        Посетители, находящиеся в группе Гости, не могут оставлять комментарии в данной новости.

        ↓ Меню



        ↓ Опрос

        А Вы добавили сайт в закладки?
        Да
        Не


        Top 10 за месяц (Фильмы)