.
Авторизация | Регистрация
Хочешь лучшие торренты? Добавь свой email!
Добавить
» » Главарь / Top Boy (2011) HDTVRip 720p | P | ViruseProject скачать через торрент бесплатно




    Главарь / Top Boy (2011) HDTVRip 720p | P | ViruseProject скачать через торрент бесплатно

    Опубликовал: Админ | Дата: 27-02-2015, 11:10 | Просмотров: 197

    Детально о кино
    Русское название: Главарь / Top Boy
    Создали в: 2011
    Категория жанра: Криминал, драма
    Главный режиссеры: Ян Деманж, Джонатан ван Тюллекен
    Актеры: Эшли Уолтерс, Кэйн Робинсон, Шон Ромул, Малькольм Камулете, Шэрон Дункан-Брюстер, Джакомо Манчини, Ксавьен Рассел, Чейфер Аппай, Бенедикт Вонг, Летишиа Райт


    Сюжет:
    Британская криминальная драма Главарь повествует о лондонском районе Саммерхаус и его жителях. Если хочешь делать дело в Саммерхаусе, ты не можешь быть сам по себе. Если хочешь выжить в Саммерхаусе, ты должен делать дело. Поэтому местные бойцы на подхвате, Дюшейн и Салли отчаянно пробиваются в главари городского наркобизнеса. Поэтому будущая мать-одиночка Хизер выращивает травку, чтобы переехать в более благополучный район. Поэтому тринадцатилетний Джим становится бегунком Дюшейна. И хотя его лучший друг Ранэлл старается держаться подальше от банд и неприятностей, в Саммерхаусе это едва ли возможно оставаться в стороне.





    Награды

    Награды
    • RTS Television Award 2012: Лучший драматический сериал
    • BAFTA TV Awards 2012: Лучшая оригинальная музыка на ТВ (Брайан Ино)

    Номинации
    • BAFTA TV Awards 2012: Лучший мини-сериал
    • BAFTA TV Awards 2012: Лучший режиссер
    • BAFTA TV Awards 2012: Лучший работа оператора
    • Broadcasting Press Guild Awards 2012: Лучший драматический сериал
    Тех. данные


    Время просмотра: 1 х ~ 00:50:00
    Снималось в: Великобритания, Cowboy Films
    Перевод текста: Профессиональный многоголосый
    Субтитры: Русские

    Файл
    Тип видео: MKV
    Качество фильма: HDTVRip 720p
    Информация о видео: MPEG-4 AVC, ~ 2242 Кбит/с, 1280x544
    Информация о звуке: Русский, английский (AC3, 6 ch, 384 Кбит/с)
    MI:

    General
    Unique ID : 229582619619703430309823990851829389879 (0xACB801122DEB0876B56E2BCC38EA5A37)
    Complete name : D:ОЗВУЧКАСЕРИАЛЫTop.Boy.s01.720p.ViruseProjectTop.Boy.s01.720p.ViruseProjectTop.Boy.S01E01.720p.ViruseProject.mkv
    Format : Matroska
    Format version : Version 4 / Version 2
    File size : 1.06 GiB
    Duration : 49mn 37s
    Overall bit rate : 3 071 Kbps
    Encoded date : UTC 2014-03-16 09:23:07
    Writing application : mkvmerge v6.5.0 (;Isn;t she lovely;) built on Oct 20 2013 12:50:05
    Writing library : libebml v1.3.0 libmatroska v1.4.1
    Video #1
    ID : 1
    Format : AVC
    Format/Info : Advanced Video Codec
    Format profile : High@L4.1
    Format settings, CABAC : Yes
    Format settings, ReFrames : 5 frames
    Codec ID : V_MPEG4/ISO/AVC
    Duration : 49mn 37s
    Bit rate : 2 242 Kbps
    Width : 1 280 pixels
    Height : 544 pixels
    Display aspect ratio : 2.35:1
    Frame rate mode : Constant
    Frame rate : 25.000 fps
    Color space : YUV
    Chroma subsampling : 4:2:0
    Bit depth : 8 bits
    Scan type : Progressive
    Bits/(Pixel*Frame) : 0.129
    Stream size : 796 MiB (73%)
    Writing library : x264 core 119 r2106 07efeb4
    Encoding settings : cabac=1 / ref=5 / deblock=1:0:0 / analyse=0x3:0x113 / me=umh / subme=8 / psy=1 / psy_rd=1.00:0.00 / mixed_ref=1 / me_range=16 / chroma_me=1 / trellis=1 / 8x8dct=1 / cqm=0 / deadzone=21,11 / fast_pskip=1 / chroma_qp_offset=-2 / threads=18 / sliced_threads=0 / nr=0 / decimate=1 / interlaced=0 / bluray_compat=0 / constrained_intra=0 / bframes=3 / b_pyramid=2 / b_adapt=2 / b_bias=0 / direct=3 / weightb=1 / open_gop=0 / weightp=2 / keyint=250 / keyint_min=25 / scenecut=40 / intra_refresh=0 / rc_lookahead=50 / rc=crf / mbtree=1 / crf=18.0 / qcomp=0.60 / qpmin=0 / qpmax=69 / qpstep=4 / ip_ratio=1.40 / aq=1:1.00
    Default : Yes
    Forced : No
    Audio #2
    ID : 2
    Format : AC-3
    Format/Info : Audio Coding 3
    Mode extension : CM (complete main)
    Format settings, Endianness : Big
    Codec ID : A_AC3
    Duration : 49mn 37s
    Bit rate mode : Constant
    Bit rate : 384 Kbps
    Channel count : 6 channels
    Channel positions : Front: L C R, Side: L R, LFE
    Sampling rate : 48.0 KHz
    Bit depth : 16 bits
    Compression mode : Lossy
    Stream size : 136 MiB (13%)
    Language : Russian
    Default : Yes
    Forced : No
    Audio #3
    ID : 3
    Format : AC-3
    Format/Info : Audio Coding 3
    Mode extension : CM (complete main)
    Format settings, Endianness : Big
    Codec ID : A_AC3
    Duration : 49mn 37s
    Bit rate mode : Constant
    Bit rate : 384 Kbps
    Channel count : 6 channels
    Channel positions : Front: L C R, Side: L R, LFE
    Sampling rate : 48.0 KHz
    Bit depth : 16 bits
    Compression mode : Lossy
    Stream size : 136 MiB (13%)
    Language : English
    Default : No
    Forced : No
    Text #4
    ID : 4
    Format : UTF-8
    Codec ID : S_TEXT/UTF8
    Codec ID/Info : UTF-8 Plain Text
    Language : Russian
    Default : No
    Forced : No
    Скриншоты для ознакомления




    Размер скачиваемого торрента: 1.06 GB (1143148830 Bytes)

    Главарь / Top Boy (2011) HDTVRip 720p | P | ViruseProject скачать через торрент бесплатно
    загрузка...
    Рейтинг →
     (голосов: 1, оценка 5/5, голосовать можно 1 раз )

    Другие торренты по теме:

  • Дон. Главарь мафии / Don (2006) BDRip от HQCLUB
  • Дон. Главарь мафии 2 / Don 2 (2011) BDRip от HQCLUB
  • Главарь / Top Boy (2011) HDTVRip | P | ViruseProject скачать через торрент бесплатно
  • Главарь / Top Boy (2013) HDTVRip | ViruseProject
  • Главарь / Top Boy (2013) HDTVRip 720p | ViruseProject


    • Комментарии (0):

      Информация

      Информация

        Посетители, находящиеся в группе Гости, не могут оставлять комментарии в данной новости.

        ↓ Меню



        ↓ Опрос

        А Вы добавили сайт в закладки?
        Да
        Не


        Top 10 за месяц (Фильмы)