.
Авторизация | Регистрация
» » Хоббит: Пустошь Смауга / The Hobbit: The Desolation of Smaug (2013) BDRip 1080p от HYPERHD | L1 торрент скачать бесплатно




    Хоббит: Пустошь Смауга / The Hobbit: The Desolation of Smaug (2013) BDRip 1080p от HYPERHD | L1 торрент скачать бесплатно

    Опубликовал: Админ | Дата: 27-02-2015, 11:10 | Просмотров: 288



    Снималось в: США, Новая Зеландия
    Категория жанра: фэнтези, приключения
    Создали в: 2013
    Время просмотра: 02:41:17
    Озвучка: Одноголосый закадровый - Pashaup
    Главный режиссёр: Питер Джексон

    Сюжет: Продолжение путешествия хоббита Бильбо Бэггинса, волшебника Гэндальфа и 13 отважных гномов. Их компания обязана завершить своё путешествие к Одинокой горе. Там они должны встретиться с величайшей опасностью из всех — созданием куда более ужасающим, чем все их прошлые противники, которое проверит на прочность не только их мужество, но крепость их дружбы и правильность выбранного пути, — драконом Смаугом.

    Актеры: Мартин Фриман, Ричард Армитедж, Иэн МакКеллен, Эванджелин Лилли, Орландо Блум, Люк Эванс, Бенедикт Камбербэтч, Ли Пейс, Кен Стотт, Эйдан Тернер

    Релиз подготовил:

    Качество фильма: BDRip 1080p
    Контейнер: MKV
    Информация о видео: MPEG-4 AVC / 10.1 Mbps / 1920x800 / 23,976 fps / 2.40:1
    Информация о звуке #1: Russian / 192 / 2.0 / 48 kHz / AC3 - Pashaup
    Информация о звуке #2: English / 1510 kbps / 5.1 / 48 kHz / DTS - Original
    Информация о звуке #3: English / 640 kpbs / 5.1 / 48 kHz / AC3 - Original
    Субтитры: Русские, английские
    Чаптеры: есть
    Семпл: http://yadi.sk/d/4KND09e1KpKEx



    МедиаИнфо
    Общее
    Уникальный идентификатор : 248035900511726346717036729507388850040 (0xBA99FA10146FA14795E628C63E03FF78)
    Полное имя : D:The Hobbit The Desolation of Smaug 2013 BDRip 1080p HYPERHD.mkv
    Формат : Matroska
    Версия формата : Version 4 / Version 2
    Размер файла : 14,3 Гбайт
    Продолжительность : 2 ч. 41 м.
    Общий поток : 12,7 Мбит/сек
    Название фильма : The Hobbit: The Desolation of Smaug 2013 BDRip 1080p HYPERHD
    Дата кодирования : UTC 2014-03-19 12:52:05
    Программа кодирования : mkvmerge v6.8.0 (;Theme for Great Cities;) 64bit built on Mar 2 2014 21:34:26
    Библиотека кодирования : libebml v1.3.0 libmatroska v1.4.1
    Attachment : Yes

    Видео
    Идентификатор : 1
    Формат : AVC
    Формат/Информация : Advanced Video Codec
    Профиль формата : High@L4.1
    Параметр CABAC формата : Да
    Параметр ReFrames формата : 5 кадров
    Идентификатор кодека : V_MPEG4/ISO/AVC
    Продолжительность : 2 ч. 41 м.
    Битрейт : 10,1 Мбит/сек
    Ширина : 1920 пикселей
    Высота : 800 пикселей
    Соотношение сторон : 2,40:1
    Режим частоты кадров : Постоянный
    Частота кадров : 23,976 кадра/сек
    Цветовое пространство : YUV
    Субдискретизация насыщенности : 4:2:0
    Битовая глубина : 8 бит
    Тип развёртки : Прогрессивная
    Бит/(Пиксели*Кадры) : 0.274
    Размер потока : 11,4 Гбайт (80%)
    Заголовок : The Hobbit: The Desolation of Smaug 2013 BDRip 1080p HYPERHD
    Язык : English
    Default : Да
    Forced : Нет

    Аудио #1
    Идентификатор : 2
    Формат : AC-3
    Формат/Информация : Audio Coding 3
    Расширение режима : CM (complete main)
    Параметр Endianness формата : Big
    Идентификатор кодека : A_AC3
    Продолжительность : 2 ч. 41 м.
    Вид битрейта : Постоянный
    Битрейт : 192 Кбит/сек
    Каналы : 2 канала
    Расположение каналов : Front: L R
    Частота : 48,0 КГц
    Битовая глубина : 16 бит
    Метод сжатия : С потерями
    Размер потока : 222 Мбайт (2%)
    Заголовок : VO Pashaup
    Язык : Russian
    Default : Да
    Forced : Нет

    Аудио #2
    Идентификатор : 3
    Формат : DTS
    Формат/Информация : Digital Theater Systems
    Режим : 16
    Параметр Endianness формата : Big
    Идентификатор кодека : A_DTS
    Продолжительность : 2 ч. 41 м.
    Вид битрейта : Постоянный
    Битрейт : 1509 Кбит/сек
    Каналы : 6 каналов
    Расположение каналов : Front: L C R, Side: L R, LFE
    Частота : 48,0 КГц
    Битовая глубина : 24 бит
    Метод сжатия : С потерями
    Размер потока : 1,70 Гбайт (12%)
    Заголовок : Original
    Язык : English
    Default : Нет
    Forced : Нет

    Аудио #3
    Идентификатор : 4
    Формат : AC-3
    Формат/Информация : Audio Coding 3
    Расширение режима : CM (complete main)
    Параметр Endianness формата : Big
    Идентификатор кодека : A_AC3
    Продолжительность : 2 ч. 41 м.
    Вид битрейта : Постоянный
    Битрейт : 640 Кбит/сек
    Каналы : 6 каналов
    Расположение каналов : Front: L C R, Side: L R, LFE
    Частота : 48,0 КГц
    Битовая глубина : 16 бит
    Метод сжатия : С потерями
    Размер потока : 738 Мбайт (5%)
    Заголовок : Original
    Язык : English
    Default : Нет
    Forced : Нет

    Текст #1
    Идентификатор : 5
    Формат : UTF-8
    Идентификатор кодека : S_TEXT/UTF8
    Идентификатор кодека/Информация : UTF-8 Plain Text
    Заголовок : Full
    Язык : Russian
    Default : Нет
    Forced : Нет

    Текст #2
    Идентификатор : 6
    Формат : PGS
    Режим смешивания : zlib
    Идентификатор кодека : S_HDMV/PGS
    Идентификатор кодека/Информация : The same subtitle format used on BDs/HD-DVDs
    Заголовок : SDH
    Язык : English
    Default : Нет
    Forced : Нет

    Текст #3
    Идентификатор : 7
    Формат : PGS
    Режим смешивания : zlib
    Идентификатор кодека : S_HDMV/PGS
    Идентификатор кодека/Информация : The same subtitle format used on BDs/HD-DVDs
    Заголовок : Full
    Язык : French
    Default : Нет
    Forced : Нет

    Текст #4
    Идентификатор : 8
    Формат : PGS
    Режим смешивания : zlib
    Идентификатор кодека : S_HDMV/PGS
    Идентификатор кодека/Информация : The same subtitle format used on BDs/HD-DVDs
    Заголовок : Full
    Язык : Portuguese
    Default : Нет
    Forced : Нет

    Текст #5
    Идентификатор : 9
    Формат : PGS
    Режим смешивания : zlib
    Идентификатор кодека : S_HDMV/PGS
    Идентификатор кодека/Информация : The same subtitle format used on BDs/HD-DVDs
    Заголовок : Full
    Язык : Spanish
    Default : Нет
    Forced : Нет

    Меню
    00:00:00.000 : en:00:00:00.000
    00:05:44.094 : en:00:05:44.094
    00:10:10.985 : en:00:10:10.985
    00:11:10.128 : en:00:11:10.128
    00:13:50.204 : en:00:13:50.204
    00:17:12.657 : en:00:17:12.657
    00:21:25.326 : en:00:21:25.326
    00:24:33.472 : en:00:24:33.472
    00:33:03.273 : en:00:33:03.273
    00:36:05.747 : en:00:36:05.747
    00:39:38.960 : en:00:39:38.960
    00:41:29.654 : en:00:41:29.654
    00:44:27.290 : en:00:44:27.290
    00:55:01.757 : en:00:55:01.757
    00:58:41.768 : en:00:58:41.768
    01:02:05.138 : en:01:02:05.138
    01:05:29.592 : en:01:05:29.592
    01:09:06.267 : en:01:09:06.267
    01:11:29.118 : en:01:11:29.118
    01:13:11.762 : en:01:13:11.762
    01:19:14.959 : en:01:19:14.959
    01:20:48.469 : en:01:20:48.469
    01:23:12.529 : en:01:23:12.529
    01:27:09.641 : en:01:27:09.641
    01:30:45.482 : en:01:30:45.482
    01:33:29.813 : en:01:33:29.813
    01:41:57.194 : en:01:41:57.194
    01:42:24.472 : en:01:42:24.472
    01:44:08.033 : en:01:44:08.033
    01:47:34.114 : en:01:47:34.114
    01:56:46.333 : en:01:56:46.333
    01:57:28.917 : en:01:57:28.917
    01:58:03.410 : en:01:58:03.410
    01:59:42.300 : en:01:59:42.300
    02:01:30.575 : en:02:01:30.575
    02:04:04.312 : en:02:04:04.312
    02:07:58.462 : en:02:07:58.462
    02:09:43.109 : en:02:09:43.109
    02:10:58.642 : en:02:10:58.642
    02:12:31.443 : en:02:12:31.443
    02:13:54.318 : en:02:13:54.318
    02:16:25.427 : en:02:16:25.427
    02:18:51.490 : en:02:18:51.490
    02:26:03.588 : en:02:26:03.588
    02:30:51.209 : en:02:30:51.209

    Скриншоты для ознакомления

    Размер скачиваемого торрента: 14.29 GB (15347199504 Bytes)

    Хоббит: Пустошь Смауга / The Hobbit: The Desolation of Smaug (2013) BDRip 1080p от HYPERHD | L1 торрент скачать бесплатно
    загрузка...
    Рейтинг →
     (голосов: 1, оценка 5/5, голосовать можно 1 раз )

    Другие торренты по теме:

  • Хоббит: Пустошь Смауга / The Hobbit: The Desolation of Smaug (2013) HD 1080p | Трейлер торрент скачать бесплатно
  • Хоббит: Пустошь Смауга (2013) скачать через торрент бесплатно
  • OST - Хоббит: Пустошь Смауга / The Hobbit: The Desolation of Smaug (2013) MP3 скачать через торрент бесплатно
  • Хоббит: Пустошь Смауга / The Hobbit: The Desolation of Smaug (2013) HD 720p | Трейлер торрент скачать бесплатно
  • Хоббит: Пустошь Смауга / The Hobbit: The Desolation of Smaug (2013) FLAC скачать через торрент бесплатно
  • Хоббит: Пустошь Смауга / The Hobbit: The Desolation of Smaug (2013) CAMRip скачать через торрент бесплатно
  • Хоббит: Пустошь Смауга / The Hobbit: The Desolation of Smaug (2013) CAMRip*PROPER* скачать через торрент бесплатно
  • Хоббит: Пустошь Смауга / The Hobbit: The Desolation of Smaug (2013) CAMRip *PROPER* скачать через торрент бесплатно


    • Комментарии (0):

      Информация

      Информация

        Посетители, находящиеся в группе Гости, не могут оставлять комментарии в данной новости.

        ↓ Меню



        ↓ Опрос

        А Вы добавили сайт в закладки?
        Да
        Не


        Top 10 за неделю (Фильмы)