.
Авторизация | Регистрация
Хочешь лучшие торренты? Добавь свой email!
Добавить
» » Прибежище / Haunt / Haunter (2013) WEB-DLRip-AVC | L2 торрент скачать бесплатно




    Прибежище / Haunt / Haunter (2013) WEB-DLRip-AVC | L2 торрент скачать бесплатно

    Опубликовал: Админ | Дата: 27-02-2015, 11:10 | Просмотров: 250



    Детально о кино
    Русское название: Прибежище
    Русское название в мировом прокате: Haunt / Haunter
    Создали в: 2013
    Категория жанра: ужасы
    Главный режиссер: Мак Картер
    Актеры: Лиана Либерато, Айони Скай, Джеки Уивер, Харрисон Джилбертсон, Даниэль Чачран, Джен Броберг, Келли Нунан, Алин Андраде, Касия Ковальчук, Себастьян Майкл Барр

    Сюжет фильма:
    Начало фильма - классический переезд одной из американских семей в новый дом. Двое родителей и замкнувшийся в себе мальчик очень рады такой перемене, однако все не столь радужно, как это могло показаться. Новая соседка Итана - потрясающе красивая девочка, в которую он тут же влюбляется. Подростки начинают тесно общаться, так как у детей находится общий интерес – новый дом Итана. Как бывает во всех многолетних зданиях – у жилья есть некое свое темное прошлое, загадочность которого манит любопытных детей. Но становится совершенно очевидно: не все тайны стоит разгадывать, ибо некоторые темные углы таят нечто совершенно не безопасное…




    Снималось в: США
    Киностудия: QED International, Revolver Picture Company
    Время просмотра: 01:25:47
    Перевод текста: Любительское (двухголосое) DeadSno den904

    Файл
    Кодек для видео: h.264
    Качество фильма: WEB-DLRip-AVC
    Информация о видео: AVC, 1024 x 428, ~1724 kbps
    Информация о звуке: Русский / Английский: AC-3, 6 ch, 384 kbps
    Субтитры: Русский А.Кедров

    Семпл

    Скриншоты для ознакомления
    MI
    Общее
    Уникальный идентификатор : 168348648403719580577546155723716462494 (0x7EA6C532C2870C1E037BA147C20E879E)
    Полное имя : G:ДИСК 21.ФИЛЬМЫПрибежище Haunt Haunter (2013) WEB-DLRip-AVCHaunt.2013.L2.WEB-DLRip-AVC.mkv
    Формат : Matroska
    Версия формата : Version 2
    Размер файла : 1,52 Гбайт
    Продолжительность : 1 ч. 25 м.
    Режим общего битрейта : Переменный
    Общий поток : 2543 Кбит/сек
    Программа кодирования : Lavf51.12.1
    Библиотека кодирования : Lavf51.12.1

    Видео
    Идентификатор : 1
    Формат : AVC
    Формат/Информация : Advanced Video Codec
    Профиль формата : Baseline@L3.1
    Параметр CABAC формата : Нет
    Параметр ReFrames формата : 1 кадр
    Параметр GOP формата : M=1, N=12
    Идентификатор кодека : V_MPEG4/ISO/AVC
    Продолжительность : 1 ч. 25 м.
    Вид битрейта : Переменный
    Битрейт : 1724 Кбит/сек
    Максимальный битрейт : 2790 Кбит/сек
    Ширина : 1024 пикселя
    Высота : 428 пикселей
    Соотношение сторон : 2,40:1
    Соотношение сторон в оригинале : 2,40:1
    Режим частоты кадров : Постоянный
    Частота кадров : 23,976 кадра/сек
    Частота кадров в оригинале : 24,000 кадра/сек
    Цветовое пространство : YUV
    Субдискретизация насыщенности : 4:2:0
    Битовая глубина : 8 бит
    Тип развёртки : Прогрессивная
    Бит/(Пиксели*Кадры) : 0.164
    Размер потока : 1,03 Гбайт (68%)
    Язык : English
    Default : Да
    Forced : Нет

    Аудио #1
    Идентификатор : 2
    Формат : AC-3
    Формат/Информация : Audio Coding 3
    Расширение режима : CM (complete main)
    Параметр Endianness формата : Big
    Идентификатор кодека : A_AC3
    Продолжительность : 1 ч. 25 м.
    Вид битрейта : Постоянный
    Битрейт : 384 Кбит/сек
    Каналы : 6 каналов
    Расположение каналов : Front: L C R, Side: L R, LFE
    Частота : 48,0 КГц
    Битовая глубина : 16 бит
    Метод сжатия : С потерями
    Размер потока : 236 Мбайт (15%)
    Язык : Russian
    Default : Да
    Forced : Нет

    Аудио #2
    Идентификатор : 4
    Формат : AC-3
    Формат/Информация : Audio Coding 3
    Расширение режима : CM (complete main)
    Параметр Endianness формата : Big
    Идентификатор кодека : A_AC3
    Продолжительность : 1 ч. 25 м.
    Вид битрейта : Постоянный
    Битрейт : 384 Кбит/сек
    Каналы : 6 каналов
    Расположение каналов : Front: L C R, Side: L R, LFE
    Частота : 48,0 КГц
    Битовая глубина : 16 бит
    Метод сжатия : С потерями
    Размер потока : 236 Мбайт (15%)
    Язык : English
    Default : Да
    Forced : Нет

    Текст
    Идентификатор : 3
    Формат : UTF-8
    Идентификатор кодека : S_TEXT/UTF8
    Идентификатор кодека/Информация : UTF-8 Plain Text
    Язык : Russian
    Default : Да
    Forced : Нет

    Размер скачиваемого торрента: 1.52 GB (1636070828 Bytes)

    Прибежище / Haunt / Haunter (2013) WEB-DLRip-AVC | L2 торрент скачать бесплатно
    загрузка...
    Рейтинг →
     (голосов: 1, оценка 5/5, голосовать можно 1 раз )

    Другие торренты по теме:

  • Площадка для игр дьявола / Прибежище Дьявола / The Devils Playground (1976) DVDRip от olegek70 | L1
  • Точка падения / Прибежище / Point de chute (1970) DVDRip | L1
  • Прибежище / Haunt / Haunter (2013) WEB-DL 720p от CINEMANIA | L1 скачать через торрент бесплатно
  • Логово / Прибежище / Haunt (2013) WEB-DLRip | Sub
  • Прибежище / Haunt / Haunter (2013) WEB-DL 720p от CINEMANIA | L2 скачать через торрент бесплатно
  • Прибежище / Haunt (2013) WEB-DLRip | L2
  • Прибежище / Haunt / Haunter (2013) BDRip 1080p от CINEMANIA | L2, L1 скачать через торрент бесплатно
  • Прибежище / Haunt / Haunter (2013) BDRip 720p от CINEMANIA | L2, L1 скачать через торрент бесплатно


    • Комментарии (0):

      Информация

      Информация

        Посетители, находящиеся в группе Гости, не могут оставлять комментарии в данной новости.

        ↓ Меню



        ↓ Опрос

        А Вы добавили сайт в закладки?
        Да
        Не


        Top 10 за месяц (Фильмы)