.
Авторизация | Регистрация
» » Хоббит: Пустошь Смауга / The Hobbit: The Desolation of Smaug (2013) BDRip 1080p | Звук с TS торрент скачать бесплатно




    Хоббит: Пустошь Смауга / The Hobbit: The Desolation of Smaug (2013) BDRip 1080p | Звук с TS торрент скачать бесплатно

    Опубликовал: Админ | Дата: 27-02-2015, 11:10 | Просмотров: 248

    Детально о кино
    Русское название: Хоббит: Пустошь Смауга / The Hobbit: The Desolation of Smaug
    Создали в: 2013
    Категория жанра: Фэнтези, драма, приключения
    Главный режиссер: Питер Джексон
    Актеры: Мартин Фриман, Иэн МакКеллен, Ричард Армитедж, Джеймс Несбитт, Кен Стотт, Грэм МакТавиш, Уильям Кирчер, Стивен Хантер, Дин О’Горман, Эйдан Тернер


    Сюжет:
    Продолжение путешествия хоббита Бильбо Бэггинса, волшебника Гэндальфа и 13 отважных гномов. Их компания обязана завершить своё путешествие к Одинокой горе. Там они должны встретиться с величайшей опасностью из всех — созданием куда более ужасающим, чем все их прошлые противники, которое проверит на прочность не только их мужество, но крепость их дружбы и правильность выбранного пути, — драконом Смаугом.





    Тех. данные


    Время просмотра: 02:41:17
    Снималось в: США, Новая Зеландия, Metro-Goldwyn-Mayer (MGM)
    Перевод текста: Дублированный Информация о звуке с TS
    Эльфийские, Оркские и т.д. диалоги на вымышленном языке озвучены одноголосным переводом!

    Субтитры подготовлены: Вшитые отключаемые, Английские

    Файл
    Тип видео: MKV
    Качество фильма: BDRip 1080p profile-LQ
    Информация о видео: MPEG-4 AVC/H.264, 8191 Kbps, 1920x800
    Информация о звуке: Аудио #1: Русский: MP3, 48.0 KHz, 2 ch, 192 Kbps, CBR; Аудио #2: Английский: DTS, 48.0 KHz, 6 ch, 1510 Kbps, CBR
    MI:

    Общее
    Уникальный идентификатор : 174341204572554077731520782338913340171 (0x8328E5074D85FDCDB515227BE6E60B0B)
    Полное имя : E:ФильмыHobbit.Pustosh.Smauga.2013.Dt.1080p.BDRip.1080p.mkv
    Формат : Matroska
    Версия формата : Version 2
    Размер файла : 11,1 Гбайт
    Продолжительность : 2 ч. 41 м.
    Общий поток : 9893 Кбит/сек
    Дата кодирования : UTC 2014-03-19 04:20:21
    Программа кодирования : mkvmerge v6.8.0 (;Theme for Great Cities;) 64bit built on Mar 2 2014 21:34:26
    Библиотека кодирования : libebml v1.3.0 libmatroska v1.4.1

    Видео
    Идентификатор : 1
    Формат : AVC
    Формат/Информация : Advanced Video Codec
    Профиль формата : High@L4.1
    Параметр CABAC формата : Да
    Параметр ReFrames формата : 5 кадров
    Идентификатор кодека : V_MPEG4/ISO/AVC
    Продолжительность : 2 ч. 41 м.
    Битрейт : 8191 Кбит/сек
    Ширина : 1920 пикселей
    Высота : 800 пикселей
    Соотношение сторон : 2,40:1
    Режим частоты кадров : Постоянный
    Частота кадров : 23,976 кадра/сек
    Цветовое пространство : YUV
    Субдискретизация насыщенности : 4:2:0
    Битовая глубина : 8 бит
    Тип развёртки : Прогрессивная
    Бит/(Пиксели*Кадры) : 0.222
    Размер потока : 9,01 Гбайт (81%)
    Библиотека кодирования : x264 core 140 r2377 1ca7bb9
    Настройки программы : cabac=1 / ref=5 / deblock=1:0:0 / analyse=0x3:0x133 / me=umh / subme=7 / psy=1 / psy_rd=1.00:0.00 / mixed_ref=1 / me_range=16 / chroma_me=1 / trellis=1 / 8x8dct=1 / cqm=0 / deadzone=21,11 / fast_pskip=0 / chroma_qp_offset=-2 / threads=36 / lookahead_threads=6 / sliced_threads=0 / nr=0 / decimate=1 / interlaced=0 / bluray_compat=0 / constrained_intra=0 / bframes=3 / b_pyramid=2 / b_adapt=1 / b_bias=0 / direct=1 / weightb=1 / open_gop=0 / weightp=2 / keyint=250 / keyint_min=23 / scenecut=40 / intra_refresh=0 / rc_lookahead=40 / rc=2pass / mbtree=1 / bitrate=8191 / ratetol=1.0 / qcomp=0.60 / qpmin=0 / qpmax=69 / qpstep=4 / cplxblur=20.0 / qblur=0.5 / ip_ratio=1.40 / aq=1:1.00
    Язык : English
    Default : Да
    Forced : Нет

    Аудио #1
    Идентификатор : 2
    Формат : MPEG Audio
    Версия формата : Version 1
    Профиль формата : Layer 3
    Режим : Joint stereo
    Расширение режима : MS Stereo
    Идентификатор кодека : A_MPEG/L3
    Идентификатор кодека/Подсказка : MP3
    Продолжительность : 2 ч. 41 м.
    Вид битрейта : Постоянный
    Битрейт : 192 Кбит/сек
    Каналы : 2 канала
    Частота : 48,0 КГц
    Метод сжатия : С потерями
    Размер потока : 221 Мбайт (2%)
    Язык : Russian
    Default : Да
    Forced : Нет

    Аудио #2
    Идентификатор : 3
    Формат : DTS
    Формат/Информация : Digital Theater Systems
    Режим : 16
    Параметр Endianness формата : Big
    Идентификатор кодека : A_DTS
    Продолжительность : 2 ч. 41 м.
    Вид битрейта : Постоянный
    Битрейт : 1509 Кбит/сек
    Каналы : 6 каналов
    Расположение каналов : Front: L C R, Side: L R, LFE
    Частота : 48,0 КГц
    Битовая глубина : 24 бит
    Метод сжатия : С потерями
    Размер потока : 1,70 Гбайт (15%)
    Язык : English
    Default : Нет
    Forced : Нет

    Текст
    Идентификатор : 4
    Формат : UTF-8
    Идентификатор кодека : S_TEXT/UTF8
    Идентификатор кодека/Информация : UTF-8 Plain Text
    Заголовок : SDH
    Язык : English
    Default : Нет
    Forced : Нет

    Меню
    00:00:00.000 : en:00:00:00.000
    00:05:44.094 : en:00:05:44.094
    00:10:10.985 : en:00:10:10.985
    00:11:10.128 : en:00:11:10.128
    00:13:50.204 : en:00:13:50.204
    00:17:12.657 : en:00:17:12.657
    00:21:25.326 : en:00:21:25.326
    00:24:33.472 : en:00:24:33.472
    00:33:03.273 : en:00:33:03.273
    00:36:05.747 : en:00:36:05.747
    00:39:38.960 : en:00:39:38.960
    00:41:29.654 : en:00:41:29.654
    00:44:27.290 : en:00:44:27.290
    00:55:01.757 : en:00:55:01.757
    00:58:41.768 : en:00:58:41.768
    01:02:05.138 : en:01:02:05.138
    01:05:29.592 : en:01:05:29.592
    01:09:06.267 : en:01:09:06.267
    01:11:29.118 : en:01:11:29.118
    01:13:11.762 : en:01:13:11.762
    01:19:14.959 : en:01:19:14.959
    01:20:48.469 : en:01:20:48.469
    01:23:12.529 : en:01:23:12.529
    01:27:09.641 : en:01:27:09.641
    01:30:45.482 : en:01:30:45.482
    01:33:29.813 : en:01:33:29.813
    01:41:57.194 : en:01:41:57.194
    01:42:24.472 : en:01:42:24.472
    01:44:08.033 : en:01:44:08.033
    01:47:34.114 : en:01:47:34.114
    01:56:46.333 : en:01:56:46.333
    01:57:28.917 : en:01:57:28.917
    01:58:03.410 : en:01:58:03.410
    01:59:42.300 : en:01:59:42.300
    02:01:30.575 : en:02:01:30.575
    02:04:04.312 : en:02:04:04.312
    02:07:58.462 : en:02:07:58.462
    02:09:43.109 : en:02:09:43.109
    02:10:58.642 : en:02:10:58.642
    02:12:31.443 : en:02:12:31.443
    02:13:54.318 : en:02:13:54.318
    02:16:25.427 : en:02:16:25.427
    02:18:51.490 : en:02:18:51.490
    02:26:03.588 : en:02:26:03.588
    02:30:51.209 : en:02:30:51.209
    Скриншоты для ознакомления






    Размер скачиваемого торрента: 11.14 GB (11966395254 Bytes)

    Хоббит: Пустошь Смауга / The Hobbit: The Desolation of Smaug (2013) BDRip 1080p | Звук с TS торрент скачать бесплатно
    загрузка...
    Рейтинг →
     (голосов: 1, оценка 3/5, голосовать можно 1 раз )

    Другие торренты по теме:

  • Хоббит: Пустошь Смауга / The Hobbit: The Desolation of Smaug (2013) HD 1080p | Трейлер торрент скачать бесплатно
  • Хоббит: Пустошь Смауга (2013) скачать через торрент бесплатно
  • OST - Хоббит: Пустошь Смауга / The Hobbit: The Desolation of Smaug (2013) MP3 скачать через торрент бесплатно
  • Хоббит: Пустошь Смауга / The Hobbit: The Desolation of Smaug (2013) HD 720p | Трейлер торрент скачать бесплатно
  • Хоббит: Пустошь Смауга / The Hobbit: The Desolation of Smaug (2013) FLAC скачать через торрент бесплатно
  • Хоббит: Пустошь Смауга / The Hobbit: The Desolation of Smaug (2013) CAMRip скачать через торрент бесплатно
  • Хоббит: Пустошь Смауга / The Hobbit: The Desolation of Smaug (2013) CAMRip*PROPER* скачать через торрент бесплатно
  • Хоббит: Пустошь Смауга / The Hobbit: The Desolation of Smaug (2013) CAMRip *PROPER* скачать через торрент бесплатно


    • Комментарии (0):

      Информация

      Информация

        Посетители, находящиеся в группе Гости, не могут оставлять комментарии в данной новости.

        ↓ Меню



        ↓ Опрос

        А Вы добавили сайт в закладки?
        Да
        Не


        Top 10 за неделю (Фильмы)