.
Авторизация | Регистрация
Хочешь лучшие торренты? Добавь свой email!
Добавить
» » Гарри Поттер и Дары смерти: Часть II / Harry Potter and the Deathly Hallows: Part 2 (2011) BDRip-AVC | iPhone | D торрент скачать бесплатно




    Гарри Поттер и Дары смерти: Часть II / Harry Potter and the Deathly Hallows: Part 2 (2011) BDRip-AVC | iPhone | D торрент скачать бесплатно

    Опубликовал: Админ | Дата: 27-02-2015, 11:10 | Просмотров: 184



    Гарри Поттер и Дары смерти: Часть II / Harry Potter and the Deathly Hallows: Part 2 (2011) BDRip-AVC | iPhone | D

    Русское название: Гарри Поттер и Дары смерти: Часть II
    Русское название в мировом прокате: Harry Potter and the Deathly Hallows: Part 2
    Создали в: 2011
    Категория жанра: фэнтези, драма, детектив, приключения
    Главный режиссер: Дэвид Йэтс
    Актеры: Дэниэл Рэдклифф, Руперт Гринт, Эмма Уотсон, Хелена Бонем Картер, Робби Колтрейн, Уорвик Дэвис, Рэйф Файнс, Майкл Гэмбон, Джон Хёрт, Джейсон Айзекс

    Сюжет фильма:
    В грандиозной последней главе битва между добрыми и злыми силами мира волшебников перерастает во всеобщую войну. Ставки ещё никогда не были так высоки, а поиск убежища — столь сложен. И быть может именно Гарри Поттеру придется пожертвовать всем в финальном сражении с Волан-де-Мортом. Способен ли наш герой спасти мир? И всё закончится здесь.



    Снималось в: Великобритания, США
    Киностудия: Warner Bros. Pictures, Heyday Films
    Время просмотра: 02:10:26
    Перевод текста: Русский дублированный

    Файл
    Кодек для видео: H.264
    Качество фильма: BDRip-AVC 480p
    Информация о видео: 640x356@851x356 (2.40:1) at 23.976 fps, AVC at 1300 kbps
    Информация о звуке:
    1: АAС 2.0 138 kbps - Русский дублированный
    2: АAС 2.0 138 kbps - Английский
    Субтитры: Отсутствуют

    MI

    General
    Complete name : C:CREATEx264modoutHarry Potter And The Deathly Hallows.Part.2.2011 (SD).m4v
    Format : MPEG-4
    Codec ID : M4V
    File size : 1.44 GiB
    Duration : 2h 10mn
    Overall bit rate mode : Variable
    Overall bit rate : 1 583 Kbps
    Movie name : Гарри Поттер и Дары Смерти: Часть II
    Performer : David Yates
    Genre : Action Adventure
    Recorded date : UTC 2011-07-07 08:00:00
    Encoded date : UTC 2014-03-19 17:32:52
    Tagged date : UTC 2014-03-19 17:38:22
    Copyright : Warner Bros., Heyday Films
    Cover : Yes
    Comment : Все закончится
    iTunEXTC : mpaa|PG-13|300|

    sonm : Harry Potter and the Deathly Hallows - Part 2
    desc : В грандиозной последней главе битва между добрыми и злыми силами мира волшебников перерастает во всеобщую войну. Ставки ещё никогда не были так высоки, а поиск убежища - столь сложен.
    ldes : В грандиозной последней главе битва между добрыми и злыми силами мира волшебников перерастает во всеобщую войну. Ставки ещё никогда не были так высоки, а поиск убежища - столь сложен. И быть может именно Гарри Поттеру придется пожертвовать всем в финальном сражении с Волан-де-Мортом. Способен ли наш герой спасти мир? И всё закончится здесь.
    hdvd : 0
    stik : 0
    cnID : 455832983
    xid : Apple:vendor_id:2011-407636

    Video
    ID : 1
    Format : AVC
    Format/Info : Advanced Video Codec
    Format profile : Baseline@L3.0
    Format settings, CABAC : No
    Format settings, ReFrames : 2 frames
    Codec ID : avc1
    Codec ID/Info : Advanced Video Coding
    Duration : 2h 10mn
    Bit rate : 1 300 Kbps
    Maximum bit rate : 7 169 Kbps
    Width : 640 pixels
    Height : 356 pixels
    Display aspect ratio : 2.40:1
    Frame rate mode : Constant
    Frame rate : 23.976 fps
    Color space : YUV
    Chroma subsampling : 4:2:0
    Bit depth : 8 bits
    Scan type : Progressive
    Bits/(Pixel*Frame) : 0.238
    Stream size : 1.18 GiB (82%)
    Title : Harry Potter And The Deathly Hallows.Part.2.2011
    Writing library : x264 core 140 r2377 40 929f149 tMod 8-bit@4:2:0 X86_64
    Encoding settings : cabac=0 / ref=2 / deblock=1:-1:-1 / analyse=0x1:0x131 / me=umh / subme=7 / psy=1 / fade_compensate=1.00 / psy_rd=1.00:0.10 / mixed_ref=1 / me_range=32 / chroma_me=1 / trellis=2 / 8x8dct=0 / cqm=0 / deadzone=21,11 / fast_pskip=0 / chroma_qp_offset=-3 / threads=12 / lookahead_threads=2 / sliced_threads=0 / nr=0 / decimate=0 / interlaced=0 / bluray_compat=0 / constrained_intra=0 / fgo=0 / bframes=0 / weightp=0 / keyint=250 / keyint_min=23 / scenecut=40 / intra_refresh=0 / rc_lookahead=80 / rc=2pass / mbtree=1 / bitrate=1300 / ratetol=1.0 / qcomp=0.70 / qpmin=0:0:0 / qpmax=69:69:69 / qpstep=4 / cplxblur=20.0 / qblur=0.5 / vbv_maxrate=5000 / vbv_bufsize=5000 / nal_hrd=none / filler=0 / ip_ratio=1.35 / aq=4:0.90 / aq-sensitivity=10.00 / aq-factor=1.00:1.00:1.00 / aq2=0 / aq3=0
    Language : English
    Encoded date : UTC 2014-03-19 17:32:52
    Tagged date : UTC 2014-03-19 17:33:49
    Matrix coefficients : BT.709

    Audio #1
    ID : 2
    Format : AAC
    Format/Info : Advanced Audio Codec
    Format profile : LC
    Codec ID : 40
    Duration : 2h 10mn
    Bit rate mode : Variable
    Bit rate : 137 Kbps
    Maximum bit rate : 182 Kbps
    Channel(s) : 2 channels
    Channel positions : Front: L R
    Sampling rate : 48.0 KHz
    Compression mode : Lossy
    Stream size : 127 MiB (9%)
    Title : Dub
    Language : Russian
    Encoded date : UTC 2014-03-19 17:33:28
    Tagged date : UTC 2014-03-19 17:33:49

    Audio #2
    ID : 3
    Format : AAC
    Format/Info : Advanced Audio Codec
    Format profile : LC
    Codec ID : 40
    Duration : 2h 10mn
    Bit rate mode : Variable
    Bit rate : 144 Kbps
    Maximum bit rate : 182 Kbps
    Channel(s) : 2 channels
    Channel positions : Front: L R
    Sampling rate : 48.0 KHz
    Compression mode : Lossy
    Stream size : 132 MiB (9%)
    Title : Original
    Language : English
    Encoded date : UTC 2014-03-19 17:33:39
    Tagged date : UTC 2014-03-19 17:33:49
    iTunes tags

    Sort Name: Harry Potter and the Deathly Hallows - Part 2
    XID: Apple:vendor_id:2011-407636
    Content ID: 455832983
    Copyright: Warner Bros., Heyday Films
    ScreenWriters: Стивен Кловз, Дж.К. Роулинг
    Producers: Дэвид Баррон, Дж.К. Роулинг, Дэбби Босси
    Director: Дэвид Йэтс
    Cast: Дэниэл Рэдклифф, Руперт Гринт, Эмма Уотсон, Хелена Бонем Картер, Робби Колтрейн, Уорвик Дэвис, Рэйф Файнс, Майкл Гэмбон, Джон Хёрт, Джейсон Айзекс
    Rating: PG-13
    Long Deion: В грандиозной последней главе битва между добрыми и злыми силами мира волшебников перерастает во всеобщую войну. Ставки ещё никогда не были так высоки, а поиск убежища - столь сложен. И быть может именно Гарри Поттеру придется пожертвовать всем в финальном сражении с Волан-де-Мортом. Способен ли наш герой спасти мир? И всё закончится здесь.
    Deion: В грандиозной последней главе битва между добрыми и злыми силами мира волшебников перерастает во всеобщую войну. Ставки ещё никогда не были так высоки, а поиск убежища - столь сложен.
    Release Date: 2011-07-07T08:00:00Z
    Artist: David Yates
    Name: Гарри Поттер и Дары Смерти: Часть II
    Comments: Все закончится
    x264

    x264 info: frame I:3694 Avg QP:17.22 size: 17884
    x264 info: frame P:183963 Avg QP:19.21 size: 6533
    x264 info: mb I I16..4: 45.5% 0.0% 54.5%
    x264 info: mb P I16..4: 1.4% 0.0% 1.8% P16..4: 48.3% 13.9% 7.4% 1.2% 0.6% skip:25.4%
    x264 info: coded y,uvDC,uvAC intra: 50.6% 54.2% 23.8% inter: 32.1% 19.9% 6.1%
    x264 info: i16 v,h,dc,p: 50% 14% 11% 25%
    x264 info: i4 v,h,dc,ddl,ddr,vr,hd,vl,hu: 36% 12% 15% 6% 7% 8% 5% 7% 4%
    x264 info: i8c dc,h,v,p: 62% 12% 21% 5%
    x264 info: ref P L0: 74.8% 25.2%
    x264 info: kb/s:1295.92




    Залил: gekka
    Размер скачиваемого торрента: 1.44 GB (1548481406 Bytes)

    Гарри Поттер и Дары смерти: Часть II / Harry Potter and the Deathly Hallows: Part 2 (2011) BDRip-AVC | iPhone | D торрент скачать бесплатно
    загрузка...
    Рейтинг →
     (голосов: 1, оценка 4/5, голосовать можно 1 раз )

    Другие торренты по теме:

  • Гарри Поттер: Антология / Harry Potter: Antology (2001-2011) BDRip 720p от R.G. GoldenShara
  • Гарри Поттер и Белое Золото II / Harry Potter and the Deathly Hallows: Part 2 (2011 / 2012) BDRip
  • Роулинг Джоан Кэтлин - Гарри Поттер. Книги 1-7 (2006-2011) MP3
  • Роулинг Джоан Кэтлин - Гарри Поттер. Книги 1-6 (2012) MP3
  • Гарри Поттер и Принц-полукровка / Harry Potter and the Half-Blood Prince (2009) HDRip от Scarabey | D
  • Гарри Поттер и орден Феникса / Harry Potter and the Order of the Phoenix (2007) HDRip от Scarabey | D
  • Гарри Поттер и кубок огня / Harry Potter and the Goblet of Fire (2005) HDRip от Scarabey | D
  • Гарри Поттер и узник Азкабана / Harry Potter and the Prisoner of Azkaban (2004) HDRip от Scarabey | D


    • Комментарии (0):

      Информация

      Информация

        Посетители, находящиеся в группе Гости, не могут оставлять комментарии в данной новости.

        ↓ Меню



        ↓ Опрос

        А Вы добавили сайт в закладки?
        Да
        Не


        Top 10 за месяц (Фильмы)