.
Авторизация | Регистрация
» » Гарри Поттер и Дары Смерти: Часть 1 / Harry Potter and the Deathly Hallows: Part 1 (2010) BDRip-AVC | iPhone | D торрент скачать бесплатно




    Гарри Поттер и Дары Смерти: Часть 1 / Harry Potter and the Deathly Hallows: Part 1 (2010) BDRip-AVC | iPhone | D торрент скачать бесплатно

    Опубликовал: Админ | Дата: 27-02-2015, 11:10 | Просмотров: 199



    Гарри Поттер и Дары Смерти: Часть 1 / Harry Potter and the Deathly Hallows: Part 1 (2010) BDRip-AVC | iPhone | D

    Русское название: Гарри Поттер и Дары Смерти: Часть I
    Русское название в мировом прокате: Harry Potter and the Deathly Hallows: Part 1
    Создали в: 2010
    Категория жанра: фэнтези, драма, детектив, приключения
    Главный режиссер: Дэвид Йэтс
    Актеры: Дэниэл Рэдклифф, Руперт Гринт, Эмма Уотсон, Том Фелтон, Бонни Райт, Алан Рикман, Рэйф Файнс, Хелена Бонем Картер, Майкл Гэмбон, Брендан Глисон

    Сюжет фильма:
    Гарри Поттера ждёт самое страшное испытание в жизни — смертельная схватка с Волан-де-Мортом. Ждать помощи не от кого — Гарри одинок, как никогда… Друзья и враги Гарри предстают в совершенно неожиданном свете. Граница между Добром и Злом становится всё призрачнее…



    Снималось в: Великобритания, США
    Киностудия: Warner Bros. Pictures, Heyday Films
    Время просмотра: 02:26:05
    Перевод текста: Русский дублированный

    Файл
    Кодек для видео: H.264
    Качество фильма: BDRip-AVC 480p
    Информация о видео: 640x356@852x356 (2.40:1) at 23.976 fps, AVC at 1300 kbps
    Информация о звуке:
    1: АAС 2.0 132 kbps - Русский дублированный
    2: АAС 2.0 132 kbps - Английский
    Субтитры: Отсутствуют

    MI

    General
    Complete name : C:CREATEx264modoutHarry Potter And The Deathly Hallows.Part.1.2010 (SD).m4v
    Format : MPEG-4
    Codec ID : M4V
    File size : 1.61 GiB
    Duration : 2h 26mn
    Overall bit rate mode : Variable
    Overall bit rate : 1 574 Kbps
    Movie name : Гарри Поттер и Дары Смерти: Часть I
    Performer : David Yates
    Genre : Action Adventure
    Recorded date : UTC 2010-11-11 08:00:00
    Encoded date : UTC 2014-03-19 17:28:11
    Tagged date : UTC 2014-03-19 17:35:55
    Copyright : Warner Bros., Heyday Films
    Cover : Yes
    Comment : Опасность повсюду
    iTunEXTC : mpaa|PG-13|300|

    hdvd : 0
    stik : 0
    cnID : 421072264
    xid : Apple:vendor_id:2010-276762

    Video
    ID : 1
    Format : AVC
    Format/Info : Advanced Video Codec
    Format profile : Baseline@L3.0
    Format settings, CABAC : No
    Format settings, ReFrames : 2 frames
    Codec ID : avc1
    Codec ID/Info : Advanced Video Coding
    Duration : 2h 26mn
    Bit rate : 1 300 Kbps
    Maximum bit rate : 7 685 Kbps
    Width : 640 pixels
    Height : 356 pixels
    Display aspect ratio : 2.40:1
    Frame rate mode : Constant
    Frame rate : 23.976 fps
    Color space : YUV
    Chroma subsampling : 4:2:0
    Bit depth : 8 bits
    Scan type : Progressive
    Bits/(Pixel*Frame) : 0.238
    Stream size : 1.32 GiB (82%)
    Title : Harry Potter And The Deathly Hallows.Part.1.2010 _SD_
    Writing library : x264 core 140 r2377 40 929f149 tMod 8-bit@4:2:0 X86_64
    Encoding settings : cabac=0 / ref=2 / deblock=1:-1:-1 / analyse=0x1:0x131 / me=umh / subme=7 / psy=1 / fade_compensate=1.00 / psy_rd=1.00:0.10 / mixed_ref=1 / me_range=32 / chroma_me=1 / trellis=2 / 8x8dct=0 / cqm=0 / deadzone=21,11 / fast_pskip=0 / chroma_qp_offset=-3 / threads=12 / lookahead_threads=2 / sliced_threads=0 / nr=0 / decimate=0 / interlaced=0 / bluray_compat=0 / constrained_intra=0 / fgo=0 / bframes=0 / weightp=0 / keyint=250 / keyint_min=23 / scenecut=40 / intra_refresh=0 / rc_lookahead=80 / rc=2pass / mbtree=1 / bitrate=1300 / ratetol=1.0 / qcomp=0.70 / qpmin=0:0:0 / qpmax=69:69:69 / qpstep=4 / cplxblur=20.0 / qblur=0.5 / vbv_maxrate=5000 / vbv_bufsize=5000 / nal_hrd=none / filler=0 / ip_ratio=1.35 / aq=4:0.90 / aq-sensitivity=10.00 / aq-factor=1.00:1.00:1.00 / aq2=0 / aq3=0
    Language : English
    Encoded date : UTC 2014-03-19 17:28:11
    Tagged date : UTC 2014-03-19 17:29:41
    Matrix coefficients : BT.709

    Audio #1
    ID : 2
    Format : AAC
    Format/Info : Advanced Audio Codec
    Format profile : LC
    Codec ID : 40
    Duration : 2h 26mn
    Bit rate mode : Variable
    Bit rate : 132 Kbps
    Maximum bit rate : 184 Kbps
    Channel(s) : 2 channels
    Channel positions : Front: L R
    Sampling rate : 48.0 KHz
    Compression mode : Lossy
    Stream size : 138 MiB (8%)
    Title : Dub
    Language : Russian
    Encoded date : UTC 2014-03-19 17:29:12
    Tagged date : UTC 2014-03-19 17:29:41

    Audio #2
    ID : 3
    Format : AAC
    Format/Info : Advanced Audio Codec
    Format profile : LC
    Codec ID : 40
    Duration : 2h 26mn
    Bit rate mode : Variable
    Bit rate : 135 Kbps
    Maximum bit rate : 185 Kbps
    Channel(s) : 2 channels
    Channel positions : Front: L R
    Sampling rate : 48.0 KHz
    Compression mode : Lossy
    Stream size : 141 MiB (9%)
    Title : Original
    Language : English
    Encoded date : UTC 2014-03-19 17:29:27
    Tagged date : UTC 2014-03-19 17:29:41
    iTunes tags

    Sort Name: Harry Potter and the Deathly Hallows - Part 1
    XID: Apple:vendor_id:2010-276762
    Content ID: 421072264
    Copyright: Warner Bros., Heyday Films
    ScreenWriters: Стивен Кловз, Дж.К. Роулинг
    Producers: Дэвид Баррон, Дэвид Хейман, Дж.К. Роулинг
    Director: Дэвид Йэтс
    Cast: Дэниэл Рэдклифф, Руперт Гринт, Эмма Уотсон, Том Фелтон, Бонни Райт, Алан Рикман, Рэйф Файнс, Хелена Бонем Картер, Майкл Гэмбон, Брендан Глисон
    Rating: PG-13
    Long Deion: Гарри Поттера ждёт самое страшное испытание в жизни - смертельная схватка с Волан-де-Мортом. Ждать помощи не от кого - Гарри одинок, как никогда... Друзья и враги Гарри предстают в совершенно неожиданном свете. Граница между Добром и Злом становится всё призрачнее...
    Deion: Гарри Поттера ждёт самое страшное испытание в жизни - смертельная схватка с Волан-де-Мортом. Ждать помощи не от кого - Гарри одинок, как никогда... .
    Release Date: 2010-11-11T08:00:00Z
    Artist: David Yates
    Name: Гарри Поттер и Дары Смерти: Часть I
    Comments: Опасность повсюду
    x264

    x264 info: frame I:4172 Avg QP:17.27 size: 16299
    x264 info: frame P:205984 Avg QP:19.15 size: 6569
    x264 info: mb I I16..4: 50.2% 0.0% 49.8%
    x264 info: mb P I16..4: 1.2% 0.0% 1.4% P16..4: 50.2% 14.4% 7.7% 1.2% 0.6% skip:23.2%
    x264 info: coded y,uvDC,uvAC intra: 45.4% 50.5% 25.2% inter: 33.9% 17.9% 8.2%
    x264 info: i16 v,h,dc,p: 51% 16% 10% 24%
    x264 info: i4 v,h,dc,ddl,ddr,vr,hd,vl,hu: 38% 13% 14% 6% 7% 7% 5% 6% 4%
    x264 info: i8c dc,h,v,p: 64% 12% 19% 4%
    x264 info: ref P L0: 74.4% 25.6%
    x264 info: kb/s:1296.97




    Залил: gekka
    Размер скачиваемого торрента: 1.61 GB (1724197451 Bytes)

    Гарри Поттер и Дары Смерти: Часть 1 / Harry Potter and the Deathly Hallows: Part 1 (2010) BDRip-AVC | iPhone | D торрент скачать бесплатно
    загрузка...
    Рейтинг →
     (голосов: 1, оценка 5/5, голосовать можно 1 раз )

    Другие торренты по теме:



      Комментарии (0):

      Информация

      Информация

        Посетители, находящиеся в группе Гости, не могут оставлять комментарии в данной новости.

        ↓ Меню



        ↓ Опрос

        А Вы добавили сайт в закладки?
        Да
        Не


        Top 10 за неделю (Фильмы)