.
Авторизация | Регистрация
» » Красное небо / Red Sky (2014) BDRip 1080p от CINEMANIA | L2 торрент скачать бесплатно




    Красное небо / Red Sky (2014) BDRip 1080p от CINEMANIA | L2 торрент скачать бесплатно

    Опубликовал: Админ | Дата: 27-02-2015, 11:10 | Просмотров: 225



    Детально о кино
    Русское название: Красное небо
    Русское название в мировом прокате: Red Sky
    Создали в: 2014
    Категория жанра: боевик
    Главный режиссер: Марио Ван Пиблз
    Актеры: Рэйчел Ли Кук, Кэм Жиганде, Шэйн Уэст, Билл Пуллман, Брайан Краузе, Джейсон Грей-Стенфорд, Дж.С. Часез, Джейсон-Шейн Скотт, Кайл Т. Хеффнер, Мария Гузеева, Владимир Турчинский

    Сюжет фильма:
    Во время первой американской кампании в Ираке двух военных летчиков – Бутча Мастерза и Томаса Крейга – подставляют. Ребятам отдан ложный приказ атаковать цель, в результате чего погибают американские эксперты, а террористам удается похитить секретное оружие. После этого пилотов с позором выгоняют из армии.

    Прошло семь лет. Крейг пытается найти утешение в руководстве небольшой частной летной школой. А Мастерз не оставляет попыток доказать свою невиновность. В этот момент становится известно, что та самая группа террористов планирует захватить северный Ирак. И Бутчу предлагают возглавить операцию по уничтожению преступников, благодаря чему у него появятся шансы очистить свое имя.



    Снималось в: США
    Время просмотра: 01:47:43
    Тип перевода: Любительское (двухголосое) datynet Selena
    перевод на русский язык kon2011

    Файл
    Тип видео: MKV
    Качество фильма: BDRip 1080p PHD
    Информация о видео: 9819 kb/s, 1920x800
    Информация о звуке: Russian: AC3, 192 kb/s (2 ch) / English: DTS, 1510 kb/s (6 ch)
    Дополнительно: Сохранены оригинальные чаптеры как на Blu-ray
    Размер скачиваемого торрента: 8.84 GB
    Скачать: Сэмпл

    Релиз группы:




    NFO
    Общее
    Red.Sky.2014.Blu.Ray.1080p.CINEMANIA.mkv
    Формат : Matroska
    Версия формата : Version 4 / Version 2
    Размер файла : 8,84 Гбайт
    Продолжительность : 1 ч. 47 м.
    Общий поток : 11,8 Мбит/сек
    Название фильма : Release Group CINEMANIA
    Дата кодирования : UTC 2014-03-19 16:08:57
    Программа кодирования : mkvmerge v6.8.0 (;Theme for Great Cities;) 64bit built on Mar 2 2014 21:34:26
    Библиотека кодирования : libebml v1.3.0 libmatroska v1.4.1

    Видео
    Идентификатор : 1
    Формат : AVC
    Формат/Информация : Advanced Video Codec
    Профиль формата : High@L4.1
    Параметр CABAC формата : Да
    Параметр ReFrames формата : 5 кадров
    Идентификатор кодека : V_MPEG4/ISO/AVC
    Продолжительность : 1 ч. 47 м.
    Битрейт : 9819 Кбит/сек
    Ширина : 1920 пикселей
    Высота : 800 пикселей
    Соотношение сторон : 2,40:1
    Режим частоты кадров : Постоянный
    Частота кадров : 23,976 кадра/сек
    Цветовое пространство : YUV
    Субдискретизация насыщенности : 4:2:0
    Битовая глубина : 8 бит
    Тип развёртки : Прогрессивная
    Бит/(Пиксели*Кадры) : 0.267
    Размер потока : 7,39 Гбайт (84%)
    Заголовок : Release Group CINEMANIA
    Язык : English
    Default : Да
    Forced : Нет

    Аудио #1
    Идентификатор : 2
    Формат : AC-3
    Формат/Информация : Audio Coding 3
    Расширение режима : CM (complete main)
    Параметр Endianness формата : Big
    Идентификатор кодека : A_AC3
    Продолжительность : 1 ч. 47 м.
    Вид битрейта : Постоянный
    Битрейт : 192 Кбит/сек
    Каналы : 2 канала
    Расположение каналов : Front: L R
    Частота : 44,1 КГц
    Битовая глубина : 16 бит
    Метод сжатия : С потерями
    Размер потока : 148 Мбайт (2%)
    Заголовок : datynet Selana
    Язык : Russian
    Default : Да
    Forced : Да

    Аудио #2
    Идентификатор : 3
    Формат : DTS
    Формат/Информация : Digital Theater Systems
    Режим : 16
    Параметр Endianness формата : Big
    Идентификатор кодека : A_DTS
    Продолжительность : 1 ч. 47 м.
    Вид битрейта : Постоянный
    Битрейт : 1509 Кбит/сек
    Каналы : 6 каналов
    Расположение каналов : Front: L C R, Side: L R, LFE
    Частота : 48,0 КГц
    Битовая глубина : 24 бит
    Метод сжатия : С потерями
    Размер потока : 1,14 Гбайт (13%)
    Язык : English
    Default : Нет
    Forced : Нет

    Меню
    00:00:00.000 : en:00:00:00.000
    00:13:38.526 : en:00:13:38.526
    00:20:12.503 : en:00:20:12.503
    00:28:01.388 : en:00:28:01.388
    00:36:12.128 : en:00:36:12.128
    00:47:46.489 : en:00:47:46.489
    00:57:23.815 : en:00:57:23.815
    01:08:48.249 : en:01:08:48.249
    01:15:41.829 : en:01:15:41.829
    01:24:37.990 : en:01:24:37.990
    01:38:45.461 : en:01:38:45.461
    01:43:22.863 : en:01:43:22.863

    Залил: DGEKIGAN
    Размер скачиваемого торрента: 8.84 GB (9496242390 Bytes)

    Красное небо / Red Sky (2014) BDRip 1080p от CINEMANIA | L2 торрент скачать бесплатно
    загрузка...
    Рейтинг →
     (голосов: 1, оценка 3/5, голосовать можно 1 раз )

    Другие торренты по теме:

  • Красное небо / Red Sky (2014) HDRip | L2 торрент скачать бесплатно
  • Красное небо / Red Sky (2014) BDRip 720p от CINEMANIA | L2 торрент скачать бесплатно
  • Красное небо / Red Sky (2014) HDRip-AVC от ExKinoRay | L2 скачать через торрент бесплатно
  • Красное небо / Red Sky (2014) BDRemux 1080p от NovaLan скачать через торрент бесплатно


    • Комментарии (0):

      Информация

      Информация

        Посетители, находящиеся в группе Гости, не могут оставлять комментарии в данной новости.

        ↓ Меню



        ↓ Опрос

        А Вы добавили сайт в закладки?
        Да
        Не


        Top 10 за неделю (Фильмы)