.
Авторизация | Регистрация
Хочешь лучшие торренты? Добавь свой email!
Добавить
» » Двадцати-пяти-борье / The Do-Deca-Pentathlon (2012) BDRip-AVC торрент скачать бесплатно




    Двадцати-пяти-борье / The Do-Deca-Pentathlon (2012) BDRip-AVC торрент скачать бесплатно

    Опубликовал: Админ | Дата: 27-02-2015, 11:10 | Просмотров: 300



    Детально о кино
    Русское название: Двадцати-пяти-борье
    Русское название в мировом прокате: The Do-Deca-Pentathlon
    Создали в: 2012
    Категория жанра: комедия
    Главный режиссер: Джей Дюпласс, Марк Дюпласс
    Актеры: Марк Келли, Стив Зиссис, Дженнифер ЛаФлер, Брендан Робинсон, Ноэль Кристи Уэллс, Рики Диллард, Элтон ЛеБланк

    Сюжет фильма: 25 спортивных дисциплин, 2 брата, 1 чемпион
    Джереми и Марк – родные братья, мужчины средних лет, которые уже давно не разговаривают друг с другом. Причина многолетнего отчуждения кроется в мероприятии под названием Двадцатипятиборье, которым они увлекались в юности. Это спортивное событие, в котором братья соревновались друг с другом в самых разных двадцати пяти спортивных дисциплинах, начиная от плавания в бассейне до игры в пинг-понг. Именно жаркие спортивные баталии в свое время и вызвали раскол среди героев.
    Теперь эти двое воссоединились вновь, приехав к матери на выходные. Джереми - профессиональный игрок в покер, Марк – серьезный человек с женой и сыном. Первоначально Марк отвергает все попытки Джереми вновь вовлечь его в конфликт. Но не выдерживает. И вот уже братья вновь вспоминают спортивные соревнования своей юности. Кто же выиграет Двадцатипятиборье и навсегда заработает право называться самым лучшим братом?




    Снималось в: США
    Киностудия: Duplass Brothers Productions
    Время просмотра: 01:16:22
    Перевод текста: Профессиональное (многоголосое) Первый Канал

    Файл
    Кодек для видео: h.264
    Качество фильма: BDRip-AVC
    Информация о видео: AVC, 1024 x 560, ~ 1815 kbps
    Информация о звуке: Русский: AC-3, 2 ch, 192 kbps / Английский: AC-3, 6 ch, 448 kbps
    Субтитры: Русский RockThis1, sERega_25

    Семпл

    Скриншоты для ознакомления
    MI
    Общее
    Уникальный идентификатор : 168348648403719580577546155723716462494 (0x7EA6C532C2870C1E037BA147C20E879E)
    Полное имя : G:Двадцати-пяти-борье The Do-Deca-Pentathlon (2012) BDRip-AVCThe.Do-Deca-Pentathlon.2012.BDRip-AVC.mkv
    Формат : Matroska
    Версия формата : Version 2
    Размер файла : 1,34 Гбайт
    Продолжительность : 1 ч. 16 м.
    Режим общего битрейта : Переменный
    Общий поток : 2504 Кбит/сек
    Программа кодирования : Lavf51.12.1
    Библиотека кодирования : Lavf51.12.1

    Видео
    Идентификатор : 1
    Формат : AVC
    Формат/Информация : Advanced Video Codec
    Профиль формата : Baseline@L3.1
    Параметр CABAC формата : Нет
    Параметр ReFrames формата : 1 кадр
    Параметр GOP формата : M=1, N=12
    Идентификатор кодека : V_MPEG4/ISO/AVC
    Продолжительность : 1 ч. 16 м.
    Вид битрейта : Переменный
    Битрейт : 1815 Кбит/сек
    Максимальный битрейт : 2790 Кбит/сек
    Ширина : 1024 пикселя
    Высота : 560 пикселей
    Соотношение сторон : 1,85:1
    Режим частоты кадров : Постоянный
    Частота кадров : 23,976 кадра/сек
    Частота кадров в оригинале : 24,000 кадра/сек
    Цветовое пространство : YUV
    Субдискретизация насыщенности : 4:2:0
    Битовая глубина : 8 бит
    Тип развёртки : Прогрессивная
    Бит/(Пиксели*Кадры) : 0.132
    Размер потока : 991 Мбайт (72%)
    Язык : English
    Default : Да
    Forced : Нет

    Аудио #1
    Идентификатор : 2
    Формат : AC-3
    Формат/Информация : Audio Coding 3
    Расширение режима : CM (complete main)
    Параметр Endianness формата : Big
    Идентификатор кодека : A_AC3
    Продолжительность : 1 ч. 16 м.
    Вид битрейта : Постоянный
    Битрейт : 192 Кбит/сек
    Каналы : 2 канала
    Расположение каналов : Front: L R
    Частота : 48,0 КГц
    Битовая глубина : 16 бит
    Метод сжатия : С потерями
    Размер потока : 105 Мбайт (8%)
    Язык : Russian
    Default : Да
    Forced : Нет

    Аудио #2
    Идентификатор : 4
    Формат : AC-3
    Формат/Информация : Audio Coding 3
    Расширение режима : CM (complete main)
    Параметр Endianness формата : Big
    Идентификатор кодека : A_AC3
    Продолжительность : 1 ч. 16 м.
    Вид битрейта : Постоянный
    Битрейт : 448 Кбит/сек
    Каналы : 6 каналов
    Расположение каналов : Front: L C R, Side: L R, LFE
    Частота : 48,0 КГц
    Битовая глубина : 16 бит
    Метод сжатия : С потерями
    Размер потока : 245 Мбайт (18%)
    Язык : English
    Default : Да
    Forced : Нет

    Текст
    Идентификатор : 3
    Формат : UTF-8
    Идентификатор кодека : S_TEXT/UTF8
    Идентификатор кодека/Информация : UTF-8 Plain Text
    Язык : Russian
    Default : Да
    Forced : Нет

    Размер скачиваемого торрента: 1.34 GB (1434378680 Bytes)

    Двадцати-пяти-борье / The Do-Deca-Pentathlon (2012) BDRip-AVC торрент скачать бесплатно
    загрузка...
    Рейтинг →
     (голосов: 1, оценка 3/5, голосовать можно 1 раз )

    Другие торренты по теме:

  • Двадцати-пяти-борье / The Do-Deca-Pentathlon (2012) BDRip 720p от CINEMANIA | P скачать через торрент бесплатно
  • Двадцати-пяти-борье / The Do-Deca-Pentathlon (2012) BDRip 1080p от CINEMANIA | P скачать через торрент бесплатно
  • Двадцати-пяти-борье / The Do-Deca-Pentathlon (2012) BDRip-AVC | Первый Канал


    • Комментарии (0):

      Информация

      Информация

        Посетители, находящиеся в группе Гости, не могут оставлять комментарии в данной новости.

        ↓ Меню



        ↓ Опрос

        А Вы добавили сайт в закладки?
        Да
        Не


        Top 10 за месяц (Фильмы)