.
Авторизация | Регистрация
» » Афера по-американски / American Hustle (2013) BDRemux 1080p от NovaLan торрент скачать бесплатно




    Афера по-американски / American Hustle (2013) BDRemux 1080p от NovaLan торрент скачать бесплатно

    Опубликовал: Админ | Дата: 27-02-2015, 11:10 | Просмотров: 242



    Русское название: Афера по-американски
    Русское название в мировом прокате: American Hustle
    Создали в: 2013
    Категория жанра: Драма, комедия, реальные события
    Главный режиссер: Дэвид О. Расселл
    Актеры: Кристиан Бэйл, Брэдли Купер, Эми Адамс, Джереми Реннер, Дженнифер Лоуренс, Луис С.К., Джек Хьюстон, Майкл Пенья, Ши Уигхэм, Алессандро Нивола
    Сюжет фильма:
    В основе сюжета фильма реальная спецоперация, проводимая в конце 70-х - начале 80-х ФБР под кодовым названием Abscam. Она изначально была нацелена на расследование торговли краденым товаром. ФБР собиралось внедрить в преступную среду своих агентов под видом посредников, скупающих краденые шедевры для богатых коллекционеров Ближнего Востока. Впоследствии операция превратилась в изобличение коррупции на разных уровнях.


    Снималось в: США, Annapurna Pictures
    Время просмотра: 02:18:04
    Перевод текста: Дублированный (Лицензия)

    Кодек для видео: H.264
    Качество фильма: Blu-Ray Remux 1080p
    Информация о видео: MPEG-4 AVC, 23.7 Мбит/с, 1920x1080, 23.976 кадр/с
    Информация о звуке: Русский (AC3, 6 ch, 448 Кбит/с), английский (DTS-HD MA, 6 ch, 3406 Кбит/с), английский (AC3, 6 ch, 448 Кбит/с)
    Субтитры: Русские, английские

    Инфо-файл

    Полное имя : C:UsersСергейDownloadsAmerican.Hustle.2013.BDRemux.1080p.NovaLan.mkv
    Формат : Matroska
    Версия формата : Version 4 / Version 2
    Размер файла : 27,6 Гбайт
    Продолжительность : 2 ч. 18 м.
    Режим общего битрейта : Переменный
    Общий поток : 28,6 Мбит/сек
    Название фильма : American Hustle 2013 - NovaLan
    Дата кодирования : UTC 2014-03-19 11:01:49
    Программа кодирования : mkvmerge v6.8.0 (;Theme for Great Cities;) 64bit built on Mar 2 2014 21:34:26
    Библиотека кодирования : libebml v1.3.0 libmatroska v1.4.1

    Видео
    Идентификатор : 1
    Формат : AVC
    Формат/Информация : Advanced Video Codec
    Профиль формата : High@L4.1
    Параметр CABAC формата : Да
    Параметр ReFrames формата : 2 кадра
    Идентификатор кодека : V_MPEG4/ISO/AVC
    Продолжительность : 2 ч. 18 м.
    Вид битрейта : Переменный
    Битрейт : 23,7 Мбит/сек
    Ширина : 1920 пикселей
    Высота : 1080 пикселей
    Соотношение сторон : 16:9
    Частота кадров : 23,976 кадра/сек
    Цветовое пространство : YUV
    Субдискретизация насыщенности : 4:2:0
    Битовая глубина : 8 бит
    Тип развёртки : Прогрессивная
    Бит/(Пиксели*Кадры) : 0.477
    Размер потока : 22,9 Гбайт (83%)
    Заголовок : American Hustle 2013 - NovaLan
    Default : Да
    Forced : Нет

    Аудио #1
    Идентификатор : 2
    Формат : AC-3
    Формат/Информация : Audio Coding 3
    Расширение режима : CM (complete main)
    Параметр Endianness формата : Big
    Идентификатор кодека : A_AC3
    Продолжительность : 2 ч. 18 м.
    Вид битрейта : Постоянный
    Битрейт : 448 Кбит/сек
    Каналы : 6 каналов
    Расположение каналов : Front: L C R, Side: L R, LFE
    Частота : 48,0 КГц
    Битовая глубина : 16 бит
    Метод сжатия : С потерями
    Размер потока : 442 Мбайт (2%)
    Язык : Russian
    Default : Да
    Forced : Нет

    Аудио #2
    Идентификатор : 3
    Формат : DTS
    Формат/Информация : Digital Theater Systems
    Профиль формата : MA / Core
    Идентификатор кодека : A_DTS
    Продолжительность : 2 ч. 18 м.
    Вид битрейта : Переменный
    Битрейт : 3406 Кбит/сек / 1510 Кбит/сек
    Каналы : 6 каналов
    Расположение каналов : Front: L C R, Side: L R, LFE
    Частота : 48,0 КГц
    Битовая глубина : 24 бит
    Метод сжатия : Без потерь / Lossy
    Язык : English
    Default : Нет
    Forced : Нет

    Аудио #3
    Идентификатор : 4
    Формат : AC-3
    Формат/Информация : Audio Coding 3
    Расширение режима : CM (complete main)
    Параметр Endianness формата : Big
    Идентификатор кодека : A_AC3
    Продолжительность : 2 ч. 18 м.
    Вид битрейта : Постоянный
    Битрейт : 448 Кбит/сек
    Каналы : 6 каналов
    Расположение каналов : Front: L C R, Side: L R, LFE
    Частота : 48,0 КГц
    Битовая глубина : 16 бит
    Метод сжатия : С потерями
    Размер потока : 442 Мбайт (2%)
    Язык : English
    Default : Нет
    Forced : Нет

    Текст #1
    Идентификатор : 5
    Формат : UTF-8
    Идентификатор кодека : S_TEXT/UTF8
    Идентификатор кодека/Информация : UTF-8 Plain Text
    Язык : Russian
    Default : Нет
    Forced : Нет

    Текст #2
    Идентификатор : 6
    Формат : UTF-8
    Идентификатор кодека : S_TEXT/UTF8
    Идентификатор кодека/Информация : UTF-8 Plain Text
    Язык : English
    Default : Нет
    Forced : Нет

    Меню
    00:00:00.000 : en:Chapter 1
    00:07:12.640 : en:Chapter 2
    00:14:11.141 : en:Chapter 3
    00:24:08.822 : en:Chapter 4
    00:31:28.970 : en:Chapter 5
    00:39:16.103 : en:Chapter 6
    00:48:40.334 : en:Chapter 7
    00:57:01.000 : en:Chapter 8
    01:06:18.599 : en:Chapter 9
    01:15:30.943 : en:Chapter 10
    01:24:12.756 : en:Chapter 11
    01:33:09.792 : en:Chapter 12
    01:41:35.089 : en:Chapter 13
    01:51:45.824 : en:Chapter 14
    02:00:25.301 : en:Chapter 15
    02:09:50.991 : en:Chapter 16


    Релиз группа NovaLan
    Автор сборки Sergei7721






    Релиз подготовил:


    Залил: Sergei7721
    Размер скачиваемого торрента: 27.57 GB (29603231617 Bytes)

    Афера по-американски / American Hustle (2013) BDRemux 1080p от NovaLan торрент скачать бесплатно
    загрузка...
    Рейтинг →
     (голосов: 1, оценка 3/5, голосовать можно 1 раз )

    Другие торренты по теме:



      Комментарии (0):

      Информация

      Информация

        Посетители, находящиеся в группе Гости, не могут оставлять комментарии в данной новости.

        ↓ Меню



        ↓ Опрос

        А Вы добавили сайт в закладки?
        Да
        Не


        Top 10 за неделю (Фильмы)