.
Авторизация | Регистрация
Хочешь лучшие торренты? Добавь свой email!
Добавить
» » Американская история ужасов / American Horror Story (2013) WEB-DLRip 720p | P2 | Кубик в Кубе торрент скачать бесплатно




    Американская история ужасов / American Horror Story (2013) WEB-DLRip 720p | P2 | Кубик в Кубе торрент скачать бесплатно

    Опубликовал: Админ | Дата: 27-02-2015, 11:10 | Просмотров: 253

    Детально о кино
    Русское название: Американская история ужасов / American Horror Story
    Создали в: 2013
    Категория жанра: Ужасы, драма, детектив
    Главный режиссеры: Брэд Фэлчак, Райан Мерфи
    Актеры: Сара Полсон, Эван Питерс, Лили Рэйб, Фрэнсис Конрой, Таисса Фармига, Габури Сидибе, Кэти Бейтс, Джессика Лэнг, Пэтти Люпон, Анджела Бассетт, Эмма Робертс, Джейми Брюер, Дэнис О’Харе, Грэй Дэймон, Алекс Брекенридж, Мэр Уиннингэм, Люси Фауст, Джозеф Фишер, Сэр М., Старлет Миариаунни, Эшлинн Росс, Лесли Джордан, Джош Гамильтон


    Сюжет:
    Третий сезон любимого сериала переносит нас в события, которые происходят спустя 300 лет после печально известного процесса над салемскими ведьмами. Итак, оставшиеся в живых потомки, в чьих жилах течет колдовская кровь, на грани исчезновения. В Новом Орлеане существует специальная школа, в которой ведьм обучают самозащите. И Верховная ведьма Фиона готова на все, чтобы защитить ведьминский клан.




    Список серий

    01. Стервозная магия / Bitchcraft
    02. Всё при нём / Boy Parts
    03. Замены / The Replacements
    04. Злая шутка / Fearful Pranks Ensue
    05. Гори, ведьма. Гори! / Burn, Witch. Burn!
    06. Лесоруб идет / The Axeman Cometh
    07. Мертвецы / The Dead
    08. Священное лишение / The Sacred Taking
    09. Голова / Head
    10. Волшебство Стиви Никс / The Magical Delights of Stevie Nicks
    11. Защити шабаш / Protect the Coven
    12. Катись в Ад / Go to Hell
    13. Семь чудес / Seven Wonders
    Релиз

    Озвучено: Кубик в Кубе
    Перевод: Инга Бу
    При поддержке: Seopult
    Работа со звуком: ЛП
    Тех. данные


    Время просмотра: 13 x ~ 00:50:00
    Снималось в: США, 20th Century Fox Television
    Перевод текста: Профессиональный двухголосый (Кубик в Кубе)
    Субтитры: Русские, английские

    Файл
    Тип видео: MKV
    Качество фильма: WEB-DLRip 720p
    Информация о видео: MPEG-4 AVC, ~ 4000 Кбит/с, 1280x718
    Информация о звуке: Русский, английский (АС3, 6 ch, 384 Кбит/с)
    MI:
    Unique ID : 246658077049343890264671863759744410488 (0xB9909E1F0F3C2D1A8E05024897662378)
    Complete name : E:SERIALSAmerican Horror Story Season 3 720p CasStudio.TVAmerican.Horror.Story.s03e01.rus.eng.720p.CasStudio.TV.mkv
    Format : Matroska
    Format version : Version 4 / Version 2
    File size : 1.73 GiB
    Duration : 50mn 54s
    Overall bit rate : 4 878 Kbps
    Encoded date : UTC 2013-10-11 14:57:53
    Writing application : mkvmerge v6.0.0 (;Coming Up For Air;) built on Jan 20 2013 09:52:00
    Writing library : libebml v1.3.0 libmatroska v1.4.0

    Video
    ID : 1
    Format : AVC
    Format/Info : Advanced Video Codec
    Format profile : High@L3.1
    Format settings, CABAC : No
    Format settings, ReFrames : 2 frames
    Codec ID : V_MPEG4/ISO/AVC
    Duration : 50mn 54s
    Bit rate : 4 012 Kbps
    Width : 1 280 pixels
    Height : 718 pixels
    Display aspect ratio : 16:9
    Frame rate mode : Constant
    Frame rate : 23.976 fps
    Color space : YUV
    Chroma subsampling : 4:2:0
    Bit depth : 8 bits
    Scan type : Progressive
    Bits/(Pixel*Frame) : 0.182
    Stream size : 1.43 GiB (82%)
    Default : Yes
    Forced : No
    Color primaries : BT.709
    Transfer characteristics : BT.709
    Matrix coefficients : BT.709

    Audio #1
    ID : 2
    Format : AC-3
    Format/Info : Audio Coding 3
    Mode extension : CM (complete main)
    Format settings, Endianness : Big
    Codec ID : A_AC3
    Duration : 50mn 54s
    Bit rate mode : Constant
    Bit rate : 384 Kbps
    Channel(s) : 6 channels
    Channel positions : Front: L C R, Side: L R, LFE
    Sampling rate : 48.0 KHz
    Bit depth : 16 bits
    Compression mode : Lossy
    Stream size : 140 MiB (8%)
    Language : Russian
    Default : Yes
    Forced : No

    Audio #2
    ID : 3
    Format : AC-3
    Format/Info : Audio Coding 3
    Mode extension : CM (complete main)
    Format settings, Endianness : Big
    Codec ID : A_AC3
    Duration : 50mn 54s
    Bit rate mode : Constant
    Bit rate : 384 Kbps
    Channel(s) : 6 channels
    Channel positions : Front: L C R, Side: L R, LFE
    Sampling rate : 48.0 KHz
    Bit depth : 16 bits
    Compression mode : Lossy
    Stream size : 140 MiB (8%)
    Language : English
    Default : No
    Forced : No

    Text
    ID : 4
    Format : UTF-8
    Codec ID : S_TEXT/UTF8
    Codec ID/Info : UTF-8 Plain Text
    Language : English
    Default : No
    Forced : No
    Скриншоты для ознакомления



    Размер скачиваемого торрента: 20.75 GB (22278674430 Bytes)

    Американская история ужасов / American Horror Story (2013) WEB-DLRip 720p | P2 | Кубик в Кубе торрент скачать бесплатно
    загрузка...
    Рейтинг →
     (голосов: 1, оценка 4/5, голосовать можно 1 раз )

    Другие торренты по теме:

  • Американская история ужасов / American Horror Story (2012) WEB-DLRip | LostFilm
  • Американская История X / American History X (1998) BDRip 720p
  • OST - Американская история ужасов / American Horror Story (2011, 2012) MP3
  • Американская история ужасов: Шабаш / American Horror Story: Coven (2013) WEB-DL 1080р | Кубик в Кубе
  • Американская история ужасов: Шабаш / American Horror Story: Coven (2013) WEB-DL 1080р | Amedia
  • Американская история ужасов: Шабаш / American Horror Story: Coven (2013) WEB-DLRip 720р | Amedia
  • Американская история ужасов: Шабаш / American Horror Story: Coven (2013) WEB-DLRip | Amedia
  • Американская история ужасов: Шабаш / American Horror Story: Coven (2013) HDTVRip | Sub


    • Комментарии (0):

      Информация

      Информация

        Посетители, находящиеся в группе Гости, не могут оставлять комментарии в данной новости.

        ↓ Меню



        ↓ Опрос

        А Вы добавили сайт в закладки?
        Да
        Не


        Top 10 за месяц (Фильмы)