.
Авторизация | Регистрация
Хочешь лучшие торренты? Добавь свой email!
Добавить
» » Плотина 999 / Проклятая волна / Dam999 (2011) HDRip от New-Team | P | лицензия скачать через торрент бесплатно




    Плотина 999 / Проклятая волна / Dam999 (2011) HDRip от New-Team | P | лицензия скачать через торрент бесплатно

    Опубликовал: Админ | Дата: 27-02-2015, 11:10 | Просмотров: 222

    A tribute to the 1975 Banqiao Dam disaster in china that claimed 250,000 innocent lives



    Снималось в: Индия, ОАЭ, Сингапур / BizTV Network

    Категория жанра: фантастика, триллер, драма, приключения
    Создали в: 2011
    Время просмотра: 01:50:18

    Перевод текста: Профессиональный (многоголосый закадровый)
    Субтитры подготовлены: русский, английский
    Оригинальная аудиодорожка: английский (отдельным файлом)

    Главный режиссер: Сохан Рой / Sohan Roy

    Актеры: Джошуа Фредерик Смит, Мегха Бурман, Линда Арсенио, Раджит Капур, Вимала Менон, Ашиш Видьятхи, Jaala Pickering, Джинит Ратх, Гарри Кей, Michael Eshwar...

    Сюжет: Мэр Джон Браун решает возвести новую дамбу для замены столетней плотины, построенной еще его дедом во времена колониализма в Индии, дабы избавить 2,5-миллионный город от угрозы наводнения, но гибнет во время акций протеста. Его зять, коррумпированный политик, становится следующим мэром и объявляет об открытии новой плотины, которую он построил без соблюдения каких-либо мер безопасности. Астролог Шанкаран предсказывает катастрофу, и группа моряков объединяется, чтобы попытаться избежать этого и спасти людей.



    Качество фильма: HDRip / BDRip 720p (Dam999 - Blu-Ray - 720p - x264 - DTS - DDR) DVD9 R5
    Тип видео: AVI

    Информация о видео: 720x304 (2.35:1), 23.976 fps, XviD ~ 807 kbps avg, 0.154 bit/pixel
    Информация о звуке 1: 48 kHz, Dolby AC3, 2 ch, 128 kbps, русский
    Информация о звуке 2: 48 kHz, Dolby AC3, 2 ch, 128 kbps, английский (отдельным файлом)
    Тип видео субтитров: SoftSub (srt)

    По поводу субтитров: Английские субтитры взяты из исходника BDRip 720p, однако исправлены многочисленные орфографические ошибки, русские субтитры взяты из лицензионного DVD9 R5

    Раздача от:
    MediaInfo

    Общее
    Полное имя : Plotina.999.2011.P.HDRip.745MB_New-Team_by_avproh.avi
    Формат : AVI
    Формат/Информация : Audio Video Interleave
    Размер файла : 745 Мбайт
    Продолжительность : 1 ч. 50 м.
    Общий поток : 944 Кбит/сек
    Программа кодирования : VirtualDubModRus 1.5.10.2 (build 2542/release)
    Библиотека кодирования : VirtualDubMod build 2542/release

    Видео
    Идентификатор : 0
    Формат : MPEG-4 Visual
    Профиль формата : Advanced Simple@L5
    Параметр BVOP формата : 1
    Параметр QPel формата : Нет
    Параметр GMC формата : Без точки перехода
    Параметр матрицы формата : Выборочная
    Идентификатор кодека : XVID
    Идентификатор кодека/Подсказка : XviD
    Продолжительность : 1 ч. 50 м.
    Битрейт : 807 Кбит/сек
    Ширина : 720 пикселей
    Высота : 304 пикселя
    Соотношение сторон : 2,35:1
    Частота кадров : 23,976 кадра/сек
    Цветовое пространство : YUV
    Субдискретизация насыщенности : 4:2:0
    Битовая глубина : 8 бит
    Тип развёртки : Прогрессивная
    Метод сжатия : С потерями
    Бит/(Пиксели*Кадры) : 0.154
    Размер потока : 636 Мбайт (85%)
    Библиотека кодирования : XviD 73

    Аудио
    Идентификатор : 1
    Формат : MPEG Audio
    Версия формата : Version 1
    Профиль формата : Layer 3
    Режим : Joint stereo
    Расширение режима : MS Stereo
    Идентификатор кодека : 55
    Идентификатор кодека/Подсказка : MP3
    Продолжительность : 1 ч. 50 м.
    Вид битрейта : Постоянный
    Битрейт : 128 Кбит/сек
    Каналы : 2 канала
    Частота : 48,0 КГц
    Метод сжатия : С потерями
    Размер потока : 101 Мбайт (14%)
    Выравнивание : Соединение по промежуткам
    Продолжительность промежутка : 42 мс. (1,00 видеокадр)
    Время предзагрузки промежутка : 504 мс.

    Скриншоты для ознакомления:



    Залил: avproh
    Размер скачиваемого торрента: 845.97 MB (887061936 Bytes)

    Плотина 999 / Проклятая волна / Dam999 (2011) HDRip от New-Team | P | лицензия скачать через торрент бесплатно
    загрузка...
    Рейтинг →
     (голосов: 1, оценка 3/5, голосовать можно 1 раз )

    Другие торренты по теме:

  • Плотина 999 / Проклятая волна / Dam999 (2011) HDRip-AVC от New-Team | P | лицензия скачать через торрент бесплатно
  • Проклятая волна / Плотина 999 / Dam999 (2011) BDRip 1080p от CINEMANIA | P
  • Плотина 999 / Проклятая волна / Dam999 (2011) DVD9 R5 от New-Team | P | лицензия


    • Комментарии (0):

      Информация

      Информация

        Посетители, находящиеся в группе Гости, не могут оставлять комментарии в данной новости.

        ↓ Меню



        ↓ Опрос

        А Вы добавили сайт в закладки?
        Да
        Не


        Top 10 за месяц (Фильмы)