.
Авторизация | Регистрация
Хочешь лучшие торренты? Добавь свой email!
Добавить
» » Хоббит: Пустошь Смауга / The Hobbit: The Desolation of Smaug (2013) HDRip | Звук с TS скачать через торрент бесплатно




    Хоббит: Пустошь Смауга / The Hobbit: The Desolation of Smaug (2013) HDRip | Звук с TS скачать через торрент бесплатно

    Опубликовал: Админ | Дата: 27-02-2015, 11:10 | Просмотров: 385

    Детально о кино
    Русское название: Хоббит: Пустошь Смауга / The Hobbit: The Desolation of Smaug
    Создали в: 2013
    Категория жанра: Фэнтези, драма, приключения
    Главный режиссер: Питер Джексон
    Актеры: Мартин Фриман, Иэн МакКеллен, Ричард Армитедж, Джеймс Несбитт, Кен Стотт, Грэм МакТавиш, Уильям Кирчер, Стивен Хантер, Дин О’Горман, Эйдан Тернер


    Сюжет:
    Продолжение путешествия хоббита Бильбо Бэггинса, волшебника Гэндальфа и 13 отважных гномов. Их компания обязана завершить своё путешествие к Одинокой горе. Там они должны встретиться с величайшей опасностью из всех — созданием куда более ужасающим, чем все их прошлые противники, которое проверит на прочность не только их мужество, но крепость их дружбы и правильность выбранного пути, — драконом Смаугом.





    Кстати

    • Фильм снят по мотивам повести Джона Рональда Руэла Толкина Хоббит, или Туда и обратно (The Hobbit, or There and Back Again, 1937).
    • У Леголаса течет кровь из носа после схватки с Болгом. Он никогда раньше не был ранен в трилогии фильмов Властелин колец.
    • Трон короля эльфов украшает пара рогов большерогих оленей.
    • Джеф Брофи снялся в фильмах Хоббит: Нежданное путешествие (2012) и Хоббит: Пустошь Смауга (2013) в роли Нори. А его сын Сэдвин Брофи снялся в роли Элдариона в фильме Властелин колец: Возвращение короля (2003).
    • Роберт Казински был взят на роль Фили, и с ним даже было отснято несколько сцен, но затем, примерно через месяц после начала съемок, он покинул проект и вернулся в Англию по личным причинам. В итоге роль досталась Дину О’Горману.
    • Мартин Фриман и Бенедикт Камбербатч снимались в перерывах съемок сериала Шерлок (2010). Стивен Фрай сыграл брата Шерлока, Майкрофта, в фильме Шерлок Холмс: Игра теней (2011), а Кристофер Ли сыграл Шерлока в фильме Шерлок Холмс и звезда оперетты (1991), сэра Генри Баскервиля в фильме Собака Баскервилей (1959) и Майкрофта в фильме Частная жизнь Шерлока Холмса (1970), в котором в роли Шерлока снялся Роберт Стивенс (озвучивавший Арагорна на радио BBC).
    • Орландо Блум на два года старше, чем Ли Пейс, который играет его отца, короля Трандуила.
    • По словам сценариста Филиппы Бойенс, Тауриэль является оригинальным персонажем, написанным специально для фильма: Мы создали ее, чтобы привнести в фильм женскую энергию. И мы считаем, что это абсолютно в духе Толкина.
    • Остальные факты на Кинопоиске.
    Тех. данные


    Время просмотра: 02:41:17
    Снималось в: США, Новая Зеландия, Metro-Goldwyn-Mayer (MGM)
    Перевод текста: Дублированный Информация о звуке с TS
    * Эльфийские, Оркские и др. диалоги на вымышленном языке озвучены одноголосным переводом.

    Субтитры подготовлены: Отсутствуют

    Файл
    Тип видео: AVI
    Качество фильма: HDRip
    Информация о видео: Xvid, ~1018 Kbps, 720x304, 23.976 fps
    Информация о звуке: MP3, 48.0 KHz, 2 ch, 192 Kbps, CBR (Русский)
    MI:

    Формат : AVI
    Формат/Информация : Audio Video Interleave
    Размер файла : 1,37 Гбайт
    Продолжительность : 2 ч. 41 м.
    Общий поток : 1219 Кбит/сек
    Название фильма : Hobbit.Pustosh.Smauga

    Видео
    Идентификатор : 0
    Формат : MPEG-4 Visual
    Профиль формата : Advanced Simple@L5
    Параметр BVOP формата : 2
    Параметр QPel формата : Нет
    Параметр GMC формата : Без точки перехода
    Параметр матрицы формата : Default (H.263)
    Режим смешивания : Сжатый битовый поток
    Идентификатор кодека : XVID
    Идентификатор кодека/Подсказка : XviD
    Продолжительность : 2 ч. 41 м.
    Битрейт : 1018 Кбит/сек
    Ширина : 720 пикселей
    Высота : 304 пикселя
    Соотношение сторон : 2,35:1
    Частота кадров : 23,976 кадра/сек
    Цветовое пространство : YUV
    Субдискретизация насыщенности : 4:2:0
    Битовая глубина : 8 бит
    Тип развёртки : Прогрессивная
    Метод сжатия : С потерями
    Бит/(Пиксели*Кадры) : 0.194
    Размер потока : 1,15 Гбайт (84%)
    Библиотека кодирования : XviD 64

    Аудио
    Идентификатор : 1
    Формат : MPEG Audio
    Версия формата : Version 1
    Профиль формата : Layer 3
    Режим : Joint stereo
    Расширение режима : MS Stereo
    Идентификатор кодека : 55
    Идентификатор кодека/Подсказка : MP3
    Продолжительность : 2 ч. 41 м.
    Вид битрейта : Постоянный
    Битрейт : 192 Кбит/сек
    Каналы : 2 канала
    Частота : 48,0 КГц
    Метод сжатия : С потерями
    Размер потока : 221 Мбайт (16%)
    Выравнивание : Соединение по промежуткам
    Продолжительность промежутка : 42 мс. (1,00 видеокадр)
    Время предзагрузки промежутка : 504 мс.
    Скриншоты для ознакомления





    Размер скачиваемого торрента: 1.37 GB (1475028708 Bytes)

    Хоббит: Пустошь Смауга / The Hobbit: The Desolation of Smaug (2013) HDRip | Звук с TS скачать через торрент бесплатно
    загрузка...
    Рейтинг →
     (голосов: 1, оценка 5/5, голосовать можно 1 раз )

    Другие торренты по теме:

  • Хоббит: Пустошь Смауга / The Hobbit: The Desolation of Smaug (2013) HD 1080p | Трейлер
  • Хоббит: Пустошь Смауга (2013) скачать через торрент бесплатно
  • OST - Хоббит: Пустошь Смауга / The Hobbit: The Desolation of Smaug (2013) MP3 скачать через торрент бесплатно
  • Хоббит: Пустошь Смауга / The Hobbit: The Desolation of Smaug (2013) HD 720p | Трейлер
  • Хоббит: Пустошь Смауга / The Hobbit: The Desolation of Smaug (2013) FLAC скачать через торрент бесплатно
  • Хоббит: Пустошь Смауга / The Hobbit: The Desolation of Smaug (2013) CAMRip скачать через торрент бесплатно
  • Хоббит: Пустошь Смауга / The Hobbit: The Desolation of Smaug (2013) CAMRip*PROPER* скачать через торрент бесплатно
  • Хоббит: Пустошь Смауга / The Hobbit: The Desolation of Smaug (2013) CAMRip *PROPER* скачать через торрент бесплатно


    • Комментарии (0):

      Информация

      Информация

        Посетители, находящиеся в группе Гости, не могут оставлять комментарии в данной новости.

        ↓ Меню



        ↓ Опрос

        А Вы добавили сайт в закладки?
        Да
        Не


        Top 10 за месяц (Фильмы)