.
Авторизация | Регистрация
Хочешь лучшие торренты? Добавь свой email!
Добавить
» » 47 ронинов / 47 Ronin (2013) BDRip 720p | Звук с TS скачать через торрент бесплатно




    47 ронинов / 47 Ronin (2013) BDRip 720p | Звук с TS скачать через торрент бесплатно

    Опубликовал: Админ | Дата: 27-02-2015, 11:10 | Просмотров: 242

    Детально о кино
    Русское название: 47 ронинов / 47 Ronin
    Создали в: 2013
    Категория жанра: Фэнтези, Боевик, Приключения
    Главный режиссер: Карл Ринш
    Актеры: Киану Ривз, Хироюки Санада, Ко Шибасаки, Таданобу Асано, Мин Танака, Джин Аканиши, Масаёси Ханеда, Хироси Согабэ, Такато Йонемото, Хироси Ямада


    Сюжет:
    Таинственный странник, преданный всеми, проданный в рабство, избранный судьбой вершить месть, станет одним из 47 воинов, бросивших вызов смерти. Явившись из другого мира, он восстанет против темных сил, чтобы защитить свою запретную любовь.







    Тех. данные


    Время просмотра: 01:58:34
    Снималось в: США / H2F Entertainment, Mid Atlantic Films, Moving Picture Company (MPC)
    Перевод текста: Дублированный Информация о звуке с TS

    Файл
    Тип видео: MKV
    Качество фильма: BDRip 720p
    Информация о видео: MPEG-4 AVC/H.264, 5076 Kbps, 1280x536
    Информация о звуке: Аудио #1: Русский: AC-3, 48.0 KHz, 2 ch, 192 Kbps, CBR; Аудио #2: Английский: DTS, 48.0 KHz, 6 ch, 1510 Kbps, CBR
    MI:

    Общее
    Уникальный идентификатор : 183818769151678337622435680514665104791 (0x8A4A350A12DCDFE8A0562B6CEBC44597)
    Полное имя : D:Фильмы47.Roninov.2013.Dt.BDRip.720p.mkv
    Формат : Matroska
    Версия формата : Version 2
    Размер файла : 5,62 Гбайт
    Продолжительность : 1 ч. 58 м.
    Общий поток : 6777 Кбит/сек
    Дата кодирования : UTC 2014-03-20 04:00:42
    Программа кодирования : mkvmerge v6.8.0 (;Theme for Great Cities;) 64bit built on Mar 2 2014 21:34:26
    Библиотека кодирования : libebml v1.3.0 libmatroska v1.4.1

    Видео
    Идентификатор : 1
    Формат : AVC
    Формат/Информация : Advanced Video Codec
    Профиль формата : High@L4.1
    Параметр CABAC формата : Да
    Параметр ReFrames формата : 5 кадров
    Идентификатор кодека : V_MPEG4/ISO/AVC
    Продолжительность : 1 ч. 58 м.
    Битрейт : 5076 Кбит/сек
    Ширина : 1280 пикселей
    Высота : 536 пикселей
    Соотношение сторон : 2,40:1
    Режим частоты кадров : Постоянный
    Частота кадров : 23,976 кадра/сек
    Цветовое пространство : YUV
    Субдискретизация насыщенности : 4:2:0
    Битовая глубина : 8 бит
    Тип развёртки : Прогрессивная
    Бит/(Пиксели*Кадры) : 0.309
    Размер потока : 4,10 Гбайт (73%)
    Библиотека кодирования : x264 core 140 r2377 1ca7bb9
    Настройки программы : cabac=1 / ref=5 / deblock=1:0:0 / analyse=0x3:0x133 / me=umh / subme=7 / psy=1 / psy_rd=1.00:0.00 / mixed_ref=1 / me_range=16 / chroma_me=1 / trellis=1 / 8x8dct=1 / cqm=0 / deadzone=21,11 / fast_pskip=0 / chroma_qp_offset=-2 / threads=18 / lookahead_threads=3 / sliced_threads=0 / nr=0 / decimate=1 / interlaced=0 / bluray_compat=0 / constrained_intra=0 / bframes=3 / b_pyramid=2 / b_adapt=1 / b_bias=0 / direct=1 / weightb=1 / open_gop=0 / weightp=2 / keyint=250 / keyint_min=23 / scenecut=40 / intra_refresh=0 / rc_lookahead=40 / rc=2pass / mbtree=1 / bitrate=5076 / ratetol=1.0 / qcomp=0.60 / qpmin=0 / qpmax=69 / qpstep=4 / cplxblur=20.0 / qblur=0.5 / ip_ratio=1.40 / aq=1:1.00
    Язык : English
    Default : Да
    Forced : Нет

    Аудио #1
    Идентификатор : 2
    Формат : AC-3
    Формат/Информация : Audio Coding 3
    Расширение режима : CM (complete main)
    Параметр Endianness формата : Big
    Идентификатор кодека : A_AC3
    Продолжительность : 1 ч. 58 м.
    Вид битрейта : Постоянный
    Битрейт : 192 Кбит/сек
    Каналы : 2 канала
    Расположение каналов : Front: L R
    Частота : 48,0 КГц
    Битовая глубина : 16 бит
    Метод сжатия : С потерями
    Размер потока : 163 Мбайт (3%)
    Язык : Russian
    Default : Да
    Forced : Нет

    Аудио #2
    Идентификатор : 3
    Формат : DTS
    Формат/Информация : Digital Theater Systems
    Режим : 16
    Параметр Endianness формата : Big
    Идентификатор кодека : A_DTS
    Продолжительность : 1 ч. 58 м.
    Вид битрейта : Постоянный
    Битрейт : 1509 Кбит/сек
    Каналы : 6 каналов
    Расположение каналов : Front: L C R, Side: L R, LFE
    Частота : 48,0 КГц
    Битовая глубина : 24 бит
    Метод сжатия : С потерями
    Размер потока : 1,25 Гбайт (22%)
    Язык : English
    Default : Нет
    Forced : Нет

    Меню
    00:00:00.000 : en:00:00:00.000
    00:04:27.559 : en:00:04:27.559
    00:11:12.088 : en:00:11:12.088
    00:16:27.820 : en:00:16:27.820
    00:20:11.836 : en:00:20:11.836
    00:26:52.319 : en:00:26:52.319
    00:31:02.944 : en:00:31:02.944
    00:36:10.627 : en:00:36:10.627
    00:43:36.614 : en:00:43:36.614
    00:50:14.511 : en:00:50:14.511
    00:54:59.421 : en:00:54:59.421
    00:59:54.049 : en:00:59:54.049
    01:09:57.735 : en:01:09:57.735
    01:13:59.018 : en:01:13:59.018
    01:19:12.247 : en:01:19:12.247
    01:24:17.386 : en:01:24:17.386
    01:33:00.825 : en:01:33:00.825
    01:38:55.555 : en:01:38:55.555
    01:44:41.609 : en:01:44:41.609
    01:48:38.303 : en:01:48:38.303
    Скриншоты для ознакомления





    Размер скачиваемого торрента: 5.62 GB (6034275386 Bytes)

    47 ронинов / 47 Ronin (2013) BDRip 720p | Звук с TS скачать через торрент бесплатно
    загрузка...
    Рейтинг →
     (голосов: 1, оценка 4/5, голосовать можно 1 раз )

    Другие торренты по теме:

  • 47 ронинов / 47 Ronin (2013) HD 720p | L1 | Трейлер
  • OST - 47 Ронинов / 47 Ronin (2013) MP3 скачать через торрент бесплатно
  • 47 ронинов / 47 Ronin (2013) CAMRip
  • 47 ронинов / 47 Ronin (2013) TS скачать через торрент бесплатно
  • 47 ронинов / 47 Ronin (2013) TS *PROPER* скачать через торрент бесплатно
  • 47 ронинов / 47 Ronin (2013) WEBRip | Звук с TS скачать через торрент бесплатно
  • 47 ронинов / 47 Ronin (2013) WEBRip-AVC | Звук с TS *PROPER* скачать через торрент бесплатно
  • 47 ронинов / 47 Ronin (2013) DVDScr | Звук с TS


    • Комментарии (0):

      Информация

      Информация

        Посетители, находящиеся в группе Гости, не могут оставлять комментарии в данной новости.

        ↓ Меню



        ↓ Опрос

        А Вы добавили сайт в закладки?
        Да
        Не


        Top 10 за месяц (Фильмы)