.
Авторизация | Регистрация
Хочешь лучшие торренты? Добавь свой email!
Добавить
» » Напарники / Partners in Crime (2000) DVDRip от NovaLan скачать через торрент бесплатно




    Напарники / Partners in Crime (2000) DVDRip от NovaLan скачать через торрент бесплатно

    Опубликовал: Админ | Дата: 27-02-2015, 11:10 | Просмотров: 244





    Снималось в: США
    Создали в: Bergman Lustig Productions, Daly-Harris Productions, Davis Entertainment Classics
    Категория жанра: Триллер
    Создали в: 2000
    Время просмотра: 01:30:20
    Перевод текста: Профессиональный двухголосый, профессиональный одноголосый
    Оригинальная аудиодорожка: Английская
    Главный режиссер: Дженнифер Уоррен
    Актеры: Рутгер Хауэр, Паулина Поризкова, Эндрю Долан, Фрэнк Герриш, Далин Кристиансен, Сара Эшли, Джофф Хансен, Эми Ван Нострэнд, Кристин Кайл, Майкл Флинн

    Сюжет: Когда в тихом американском городке бесследно исчез состоятельный бизнесмен, дело о похищении было поручено детективу Риардону. Но все свои действия он обязан согласовывать с агентами ФБР. А их возглавляет его бывшая жена Уоллис, ушедшая от Риардона ради карьеры в ФБР...



    Исходник: DVD5 R2
    Тип релиза: DVDRip
    Контейнер: AVI
    Информация о видео: XviD, 1731 Кбит/с, 640x480
    Информация о звуке: Русский, английский (АС3, 2 ch, 192 Кбит/с)

    Перевод

    Аудио#1: Профессиональный двухголосый
    Аудио#2: Профессиональный одноголосый
    Аудио#3: Английский
    MediaInfo
    Общее
    Полное имя : D:1АААНапарники.avi
    Формат : AVI
    Формат/Информация : Audio Video Interleave
    Размер файла : 1,46 Гбайт
    Продолжительность : 1 ч. 30 м.
    Общий поток : 2320 Кбит/сек
    Программа кодирования : VirtualDubMod 1.5.10.2 (build 2540/release)
    Библиотека кодирования : VirtualDubMod build 2540/release

    Видео
    Идентификатор : 0
    Формат : MPEG-4 Visual
    Профиль формата : Advanced Simple@L5
    Параметр BVOP формата : 2
    Параметр QPel формата : Нет
    Параметр GMC формата : Без точки перехода
    Параметр матрицы формата : Default (MPEG)
    Идентификатор кодека : XVID
    Идентификатор кодека/Подсказка : XviD
    Продолжительность : 1 ч. 30 м.
    Битрейт : 1725 Кбит/сек
    Ширина : 640 пикселей
    Высота : 480 пикселей
    Соотношение сторон : 4:3
    Частота кадров : 23,976 кадра/сек
    Цветовое пространство : YUV
    Субдискретизация насыщенности : 4:2:0
    Битовая глубина : 8 бит
    Тип развёртки : Прогрессивная
    Метод сжатия : С потерями
    Бит/(Пиксели*Кадры) : 0.234
    Размер потока : 1,09 Гбайт (74%)
    Библиотека кодирования : XviD 1.2.1 (UTC 2008-12-04)

    Аудио #1
    Идентификатор : 1
    Формат : AC-3
    Формат/Информация : Audio Coding 3
    Расширение режима : CM (complete main)
    Параметр Endianness формата : Big
    Идентификатор кодека : 2000
    Продолжительность : 1 ч. 30 м.
    Вид битрейта : Постоянный
    Битрейт : 192 Кбит/сек
    Каналы : 2 канала
    Расположение каналов : Front: L R
    Частота : 48,0 КГц
    Битовая глубина : 16 бит
    Метод сжатия : С потерями
    Размер потока : 124 Мбайт (8%)
    Выравнивание : Разделение по промежуткам
    Продолжительность промежутка : 42 мс. (1,00 видеокадр)
    Время предзагрузки промежутка : 500 мс.

    Аудио #2
    Идентификатор : 2
    Формат : AC-3
    Формат/Информация : Audio Coding 3
    Расширение режима : CM (complete main)
    Параметр Endianness формата : Big
    Идентификатор кодека : 2000
    Продолжительность : 1 ч. 30 м.
    Вид битрейта : Постоянный
    Битрейт : 192 Кбит/сек
    Каналы : 2 канала
    Расположение каналов : Front: L R
    Частота : 48,0 КГц
    Битовая глубина : 16 бит
    Метод сжатия : С потерями
    Размер потока : 124 Мбайт (8%)
    Выравнивание : Разделение по промежуткам
    Продолжительность промежутка : 42 мс. (1,00 видеокадр)
    Время предзагрузки промежутка : 500 мс.

    Аудио #3
    Идентификатор : 3
    Формат : AC-3
    Формат/Информация : Audio Coding 3
    Профиль формата : Dolby Digital
    Расширение режима : CM (complete main)
    Параметр Endianness формата : Big
    Идентификатор кодека : 2000
    Продолжительность : 1 ч. 30 м.
    Вид битрейта : Постоянный
    Битрейт : 192 Кбит/сек
    Каналы : 2 канала
    Расположение каналов : Front: L R
    Частота : 48,0 КГц
    Битовая глубина : 16 бит
    Метод сжатия : С потерями
    Размер потока : 124 Мбайт (8%)
    Выравнивание : Разделение по промежуткам
    Продолжительность промежутка : 42 мс. (1,00 видеокадр)
    Время предзагрузки промежутка : 500 мс.
    Скриншоты для ознакомления

    Релиз группа:
    Автор рипа:
    Залил: YArl
    Размер скачиваемого торрента: 1.46 GB (1571563520 Bytes)

    Напарники / Partners in Crime (2000) DVDRip от NovaLan скачать через торрент бесплатно
    загрузка...
    Рейтинг →
     (голосов: 1, оценка 3/5, голосовать можно 1 раз )

    Другие торренты по теме:

  • Напарники / Bade Miyan Chote Miyan / 1998 / ПД / DVDRip
  • Отпетые напарники / По следу / Skiptrace (2016) HDRip от MegaPeer | iTunes
  • Отпетые напарники / По следу / Skiptrace (2016) BDRip 1080р от ExKinoRay | iTunes
  • Отпетые напарники / По следу / Skiptrace (2016) BDRip от ExKinoRay | iTunes
  • Напарники / Compaeros / Vamos a matar, compaeros (1970) BDRip от HQCLUB | P
  • Отпетые напарники / По следу / Skiptrace (2016) BDRip 720р от New-Team | iTunes
  • Отпетые напарники / Skiptrace (2016) BDRip 720р от k.e.n NNMClub| D, L
  • Отпетые напарники / Skiptrace (2016) HDRip от Scarabey | iTunes


    • Комментарии (0):

      Информация

      Информация

        Посетители, находящиеся в группе Гости, не могут оставлять комментарии в данной новости.

        ↓ Меню



        ↓ Опрос

        А Вы добавили сайт в закладки?
        Да
        Не


        Top 10 за месяц (Фильмы)