.
Авторизация | Регистрация
Хочешь лучшие торренты? Добавь свой email!
Добавить
» » Осенняя сказка / Conte dautomne (1998) BDRip by msltel | P скачать через торрент бесплатно




    Осенняя сказка / Conte dautomne (1998) BDRip by msltel | P скачать через торрент бесплатно

    Опубликовал: Админ | Дата: 27-02-2015, 11:10 | Просмотров: 200



    Русское название: Осенняя сказка
    Русское название в мировом прокате: Conte d;automne
    Создали в: 1998
    Категория жанра: Драма, мелодрама
    Снималось в: Франция, La Sept Cin?ma, Les Films du Losange, Rh?ne-Alpes Cin?ma, Sofadinko
    Главный режиссер: Эрик Ромер
    Актеры: Мари Ривьер, Беатрис Роман, Ален Либоль, Дидье Сандр, Алексия Порталь, Стефани Дармон, Аурелия Алькаис, Маттьё Даветт, Ив Алькаис

    Сюжет фильма: Магали сорок пять лет. По профессии она винодел, а по семейному положению вдова. После того как взрослые дети покинули родной дом, ей немного одиноко, и её лучшая подруга Изабель решает подыскать для неё нового мужа. В тайне от Магали Изабель размещает в местной газете объявление и находит приятную кандидатуру по имени Жеральд. В то же самое время Розин (девушка сына Магали) вознамерилась познакомить потенциальную свекровь со своим бывшим учителем философии (и заодно экс-любовником) Этьеном. В итоге получается так, что на свадьбе дочери Изабель ни о чём не подозревающая Магали знакомится сразу с обоими мужчинами…

    Качество фильма: BDRip
    Информация о видео: XviD, 2000 Кбит/с, 704x528
    Информация о звуке: Русский (AC3, 2 ch, 224 Кбит/с), фрацузcкий (AC3, 2 ch, 192 Кбит/с)
    Размер скачиваемого торрента: 1.89 ГБ
    Время просмотра: 01:51:21
    Перевод текста: Профессиональный многоголосый (Кармен Видео)
    Субтитры: Русские, английские

    Исходник: triusiukas (Кинозал)

    Сравнение с исходником



    Награды
    Венецианский кинофестиваль, 1998 год
    Победитель (2):
    Золотые Озеллы за лучший оригинальный сценарий
    Премия Серджио Трассати - особое упоминание

    Номинации (1):
    Золотой лев
    MediaInfo
    Общее
    Полное имя : D:VideoOsennjaja skazka.1998.XviD.BDRipOsennjaja skazka.1998.eng.srt
    Формат : SubRip
    Размер файла : 111 Кбайт

    Текст
    Формат : SubRip
    Метод сжатия : Без потерь

    Общее
    Полное имя : D:VideoOsennjaja skazka.1998.XviD.BDRipOsennjaja skazka.1998.Original.fre.ac3
    Формат : AC-3
    Формат/Информация : Audio Coding 3
    Размер файла : 153 Мбайт
    Продолжительность : 1 ч. 51 м.
    Режим общего битрейта : Постоянный
    Общий поток : 192 Кбит/сек

    Аудио
    Формат : AC-3
    Формат/Информация : Audio Coding 3
    Расширение режима : CM (complete main)
    Параметр Endianness формата : Big
    Продолжительность : 1 ч. 51 м.
    Вид битрейта : Постоянный
    Битрейт : 192 Кбит/сек
    Каналы : 2 канала
    Расположение каналов : Front: L R
    Частота : 48,0 КГц
    Битовая глубина : 16 бит
    Метод сжатия : С потерями
    Размер потока : 153 Мбайт (100%)

    Общее
    Полное имя : D:VideoOsennjaja skazka.1998.XviD.BDRipOsennjaja skazka.1998.rus.srt
    Формат : SubRip
    Размер файла : 152 Кбайт

    Текст
    Формат : SubRip
    Метод сжатия : Без потерь

    Общее
    Полное имя : D:VideoOsennjaja skazka.1998.XviD.BDRipOsennjaja skazka.1998.XviD.BDRip.avi
    Формат : AVI
    Формат/Информация : Audio Video Interleave
    Размер файла : 1,74 Гбайт
    Продолжительность : 1 ч. 51 м.
    Общий поток : 2233 Кбит/сек
    Программа кодирования : VirtualDubMod 1.5.10.2 (build 2540/release)
    Библиотека кодирования : VirtualDubMod build 2540/release

    Видео
    Идентификатор : 0
    Формат : MPEG-4 Visual
    Профиль формата : Advanced Simple@L5
    Параметр BVOP формата : 1
    Параметр QPel формата : Нет
    Параметр GMC формата : Без точки перехода
    Параметр матрицы формата : Default (H.263)
    Режим смешивания : Сжатый битовый поток
    Идентификатор кодека : XVID
    Идентификатор кодека/Подсказка : XviD
    Продолжительность : 1 ч. 51 м.
    Битрейт : 2000 Кбит/сек
    Ширина : 704 пикселя
    Высота : 528 пикселей
    Соотношение сторон : 4:3
    Частота кадров : 24,000 кадра/сек
    Цветовое пространство : YUV
    Субдискретизация насыщенности : 4:2:0
    Битовая глубина : 8 бит
    Тип развёртки : Прогрессивная
    Метод сжатия : С потерями
    Бит/(Пиксели*Кадры) : 0.224
    Размер потока : 1,56 Гбайт (90%)
    Библиотека кодирования : XviD 1.2.1 (UTC 2008-12-04)

    Аудио
    Идентификатор : 1
    Формат : AC-3
    Формат/Информация : Audio Coding 3
    Расширение режима : CM (complete main)
    Параметр Endianness формата : Big
    Идентификатор кодека : 2000
    Продолжительность : 1 ч. 51 м.
    Вид битрейта : Постоянный
    Битрейт : 224 Кбит/сек
    Каналы : 2 канала
    Расположение каналов : Front: L R
    Частота : 48,0 КГц
    Битовая глубина : 16 бит
    Метод сжатия : С потерями
    Размер потока : 178 Мбайт (10%)
    Выравнивание : Разделение по промежуткам
    Продолжительность промежутка : 42 мс. (1,00 видеокадр)
    Время предзагрузки промежутка : 500 мс.
    Скриншоты для ознакомления



    Залил: msltel
    Размер скачиваемого торрента: 1.89 GB (2025751113 Bytes)

    Осенняя сказка / Conte dautomne (1998) BDRip by msltel | P скачать через торрент бесплатно
    загрузка...
    Рейтинг →
     (голосов: 1, оценка 5/5, голосовать можно 1 раз )

    Другие торренты по теме:

  • Осенняя сказка / Conte dautomne (1998) BDRip-AVC от Rulya74
  • Осенняя сказка / Conte dautomne (1998) BDRip 720p by msltel | P скачать через торрент бесплатно
  • Осенняя сказка / Conte dautomne (1998) BDRip 1080p by msltel | P


    • Комментарии (0):

      Информация

      Информация

        Посетители, находящиеся в группе Гости, не могут оставлять комментарии в данной новости.

        ↓ Меню



        ↓ Опрос

        А Вы добавили сайт в закладки?
        Да
        Не


        Top 10 за месяц (Фильмы)