.
Авторизация | Регистрация
Хочешь лучшие торренты? Добавь свой email!
Добавить
» » Медсестра / Nurse 3-D (2013) WEB-DLRip-AVC | P, L1 скачать через торрент бесплатно




    Медсестра / Nurse 3-D (2013) WEB-DLRip-AVC | P, L1 скачать через торрент бесплатно

    Опубликовал: Админ | Дата: 27-02-2015, 11:10 | Просмотров: 227



    Детально о кино
    Русское название: Медсестра
    Русское название в мировом прокате: Nurse 3-D
    Создали в: 2013
    Категория жанра: ужасы, триллер
    Главный режиссер: Дуглас Арниокоски / Douglas Aarniokoski
    Актеры: Пас де ла Уэрта, Катрина Боуден, Корбин Блю, Джадд Нельсон, Борис Коджо, Адам Хершман, Найси Нэш, Кэтлин Тёрнер, Майкл Эклунд, Мелани Скорфано

    Сюжет фильма: Ваша боль – её наслаждение
    Днём она — примерная медсестра, которой люди доверяют свою жизнь. А ночью она использует собственную сексуальность, соблазняя людей, чтобы затем убить их с особой жестокостью… Крови становится все больше, и её коллега начинает свое расследование, но кажется, что подозрениям никто не готов поверить…





    Снималось в: США
    Киностудия: Lions Gate Entertainment, Lionsgate
    Время просмотра: 01:23:54
    Перевод текста: Профессиональный (многоголосый, закадровый) BaibaKo | ненормативная лексика Любительский (одноголосый, закадровый)

    Файл
    Кодек для видео: h.264
    Качество фильма: WEB-DLRip-AVC
    Информация о видео: AVC, 1024 x 424, ~1808 kbps
    Информация о звуке: Русский BaibaKo: AC3, 2 ch, 192 kbps / Русский Любительский (одноголосый, закадровый), Английский: AC3, 6 ch, 384 kbps
    Субтитры: Английские

    Семпл

    Скриншоты для ознакомления
    MI
    Общее
    Уникальный идентификатор : 168348648403719580577546155723716462494 (0x7EA6C532C2870C1E037BA147C20E879E)
    Полное имя : H:Медсестра Nurse 3-D (Дуглас Арниокоски Douglas Aarniokoski) 2013 г., ужасы, триллер, WEB-DLRip-AVC MVO (BaibaKo) VO Sub(Eng)Nurse.2013.P.WEB-DLRip-AVC.mkv
    Формат : Matroska
    Версия формата : Version 2
    Размер файла : 1,66 Гбайт
    Продолжительность : 1 ч. 23 м.
    Режим общего битрейта : Переменный
    Общий поток : 2825 Кбит/сек
    Программа кодирования : Lavf51.12.1
    Библиотека кодирования : Lavf51.12.1

    Видео
    Идентификатор : 1
    Формат : AVC
    Формат/Информация : Advanced Video Codec
    Профиль формата : Baseline@L3.1
    Параметр CABAC формата : Нет
    Параметр ReFrames формата : 1 кадр
    Параметр GOP формата : M=1, N=12
    Идентификатор кодека : V_MPEG4/ISO/AVC
    Продолжительность : 1 ч. 23 м.
    Вид битрейта : Переменный
    Битрейт : 1808 Кбит/сек
    Максимальный битрейт : 2790 Кбит/сек
    Ширина : 1024 пикселя
    Высота : 424 пикселя
    Соотношение сторон : 2,40:1
    Режим частоты кадров : Постоянный
    Частота кадров : 23,976 кадра/сек
    Частота кадров в оригинале : 24,000 кадра/сек
    Цветовое пространство : YUV
    Субдискретизация насыщенности : 4:2:0
    Битовая глубина : 8 бит
    Тип развёртки : Прогрессивная
    Бит/(Пиксели*Кадры) : 0.174
    Размер потока : 1,06 Гбайт (64%)
    Язык : English
    Default : Да
    Forced : Нет

    Аудио #1
    Идентификатор : 2
    Формат : AC-3
    Формат/Информация : Audio Coding 3
    Расширение режима : CM (complete main)
    Параметр Endianness формата : Big
    Идентификатор кодека : A_AC3
    Продолжительность : 1 ч. 23 м.
    Вид битрейта : Постоянный
    Битрейт : 192 Кбит/сек
    Каналы : 2 канала
    Расположение каналов : Front: L R
    Частота : 48,0 КГц
    Битовая глубина : 16 бит
    Метод сжатия : С потерями
    Размер потока : 115 Мбайт (7%)
    Язык : Russian
    Default : Да
    Forced : Нет

    Аудио #2
    Идентификатор : 4
    Формат : AC-3
    Формат/Информация : Audio Coding 3
    Расширение режима : CM (complete main)
    Параметр Endianness формата : Big
    Идентификатор кодека : A_AC3
    Продолжительность : 1 ч. 23 м.
    Вид битрейта : Постоянный
    Битрейт : 384 Кбит/сек
    Каналы : 6 каналов
    Расположение каналов : Front: L C R, Side: L R, LFE
    Частота : 48,0 КГц
    Битовая глубина : 16 бит
    Метод сжатия : С потерями
    Размер потока : 230 Мбайт (14%)
    Язык : Russian
    Default : Да
    Forced : Нет

    Аудио #3
    Идентификатор : 5
    Формат : AC-3
    Формат/Информация : Audio Coding 3
    Расширение режима : CM (complete main)
    Параметр Endianness формата : Big
    Идентификатор кодека : A_AC3
    Продолжительность : 1 ч. 23 м.
    Вид битрейта : Постоянный
    Битрейт : 384 Кбит/сек
    Каналы : 6 каналов
    Расположение каналов : Front: L C R, Side: L R, LFE
    Частота : 48,0 КГц
    Битовая глубина : 16 бит
    Метод сжатия : С потерями
    Размер потока : 230 Мбайт (14%)
    Язык : English
    Default : Да
    Forced : Нет

    Текст
    Идентификатор : 3
    Формат : UTF-8
    Идентификатор кодека : S_TEXT/UTF8
    Идентификатор кодека/Информация : UTF-8 Plain Text
    Язык : English
    Default : Да
    Forced : Нет

    Размер скачиваемого торрента: 1.66 GB (1777706364 Bytes)

    Медсестра / Nurse 3-D (2013) WEB-DLRip-AVC | P, L1 скачать через торрент бесплатно
    загрузка...
    Рейтинг →
     (голосов: 1, оценка 3/5, голосовать можно 1 раз )

    Другие торренты по теме:

  • Чувственная медсестра / Медсестра / Linfermiera / The Sensuous Nurse (1975) DVDRip | Sub скачать через торрент бесплатно
  • Медсестра / Nurse 3-D (2013) WEB-DLRip | L1 скачать через торрент бесплатно
  • Медсестра / Nurse 3-D (2013) WEB-DL 720p | L1 скачать через торрент бесплатно
  • Медсестра / Nurse 3-D (2013) WEB-DL 720p | P, L1
  • Медсестра / Nurse 3-D (2013) WEB-DLRip | BaibaKo
  • Кладбище живых: Влюблённая зомби медсестра / Graveyard Alive: A Zombie Nurse in Love (2003) DVDRip | Xixidok скачать через торрент бесплатно
  • Медсестра 3D / Nurse 3-D (2013) BDRip 1080p | P
  • Медсестра / Nurse 3-D (2013) HDRip | BaibaKo скачать через торрент бесплатно


    • Комментарии (0):

      Информация

      Информация

        Посетители, находящиеся в группе Гости, не могут оставлять комментарии в данной новости.

        ↓ Меню



        ↓ Опрос

        А Вы добавили сайт в закладки?
        Да
        Не


        Top 10 за месяц (Фильмы)