.
Авторизация | Регистрация
» » Пена дней / Lecume des jours (2013) BDRip-AVC | iPhone | D скачать через торрент бесплатно




    Пена дней / Lecume des jours (2013) BDRip-AVC | iPhone | D скачать через торрент бесплатно

    Опубликовал: Админ | Дата: 27-02-2015, 11:10 | Просмотров: 238



    Пена дней / L;ecume des jours (2013) BDRip-AVC | iPhone | D

    Русское название: Пена дней
    Русское название в мировом прокате: L;ecume des jours
    Создали в: 2013
    Категория жанра: фэнтези, мелодрама, драма
    Главный режиссер: Мишель Гондри
    Актеры: Ромен Дюрис, Одри Тоту, Гад Эльмалех, Омар Си, Айса Майга, Шарлотта Лебон, Саша Бурдо, Филипп Торретон, Венсан Ротье, Лоран Лафитт

    Сюжет фильма:
    Драматический фильм Пена дней режиссера Мишель Гондри является экранизацией знаменитого романа Бориса Виана.
    В волшебном фантастическом мире проживают двое влюбленных друг в друга молодых людей - Колен и Хлоя. Они любят и любимы, они счастливы, им кажется, что мир принадлежит только им. У них невероятно красивая и пронзительная любовь, они прилетают друг к другу на свидание в розовых тучках. Они танцуют на потолке вверх ногами, в доме у них живет солнце, кошки дружат с мышами, а у Хлои внутри растет водяная лилия. Они живут в мире, где тепло человеческого сердца может уничтожить самое опасное оружие.


    Снималось в: Франция, Бельгия
    Киностудия: Studiocanal
    Время просмотра: 02:10:53
    Перевод текста: Русский дублированный

    Файл
    Кодек для видео: H.264
    Качество фильма: BDRip-AVC 480p
    Информация о видео: 640x480@852x480 (16:9) at 24.000 fps, AVC at 1400 kbps
    Информация о звуке:
    1: АAС 2.0 136 kbps - Русский дублированный
    Субтитры: Отсутствуют

    MI

    General
    Complete name : C:CREATE480outLecume des jours.2013 (SD).m4v
    Format : MPEG-4
    Codec ID : M4V
    File size : 1.40 GiB
    Duration : 2h 10mn
    Overall bit rate mode : Variable
    Overall bit rate : 1 534 Kbps
    Movie name : Пена дней
    Performer : Michel Gondry
    Genre : Drama
    Recorded date : UTC 2013-04-24 08:00:00
    Encoded date : UTC 2014-03-20 08:14:15
    Tagged date : UTC 2014-03-20 08:19:44
    Copyright : StudioCanal
    Cover : Yes
    iTunEXTC : mpaa|PG-13|300|

    sonm : L;?cume des jours
    desc : История любви, разворачивающаяся в фантастическом мире, где влюбленные летают на свидания в розовых тучках и танцуют на потолке, где в коридоре обычной квартиры живет солнце, а мыши-домоправители ведут беседы с кошками, где цветы прорастают внутри лю
    ldes : История любви, разворачивающаяся в фантастическом мире, где влюбленные летают на свидания в розовых тучках и танцуют на потолке, где в коридоре обычной квартиры живет солнце, а мыши-домоправители ведут беседы с кошками, где цветы прорастают внутри людей и тепло человеческого сердца способно уничтожить самое опасное оружие
    hdvd : 0
    stik : 0
    cnID : 606669
    xid : Apple:vendor_id:2013-606669

    Video
    ID : 1
    Format : AVC
    Format/Info : Advanced Video Codec
    Format profile : Baseline@L3.0
    Format settings, CABAC : No
    Format settings, ReFrames : 2 frames
    Format settings, GOP : N=1
    Codec ID : avc1
    Codec ID/Info : Advanced Video Coding
    Duration : 2h 10mn
    Bit rate : 1 392 Kbps
    Maximum bit rate : 6 221 Kbps
    Width : 640 pixels
    Height : 480 pixels
    Display aspect ratio : 16:9
    Frame rate mode : Constant
    Frame rate : 24.000 fps
    Color space : YUV
    Chroma subsampling : 4:2:0
    Bit depth : 8 bits
    Scan type : Progressive
    Bits/(Pixel*Frame) : 0.189
    Stream size : 1.27 GiB (91%)
    Title : L_ecume des jours _2013_
    Language : English
    Encoded date : UTC 2014-03-20 08:14:15
    Tagged date : UTC 2014-03-20 08:14:56
    Matrix coefficients : BT.709

    Audio
    ID : 2
    Format : AAC
    Format/Info : Advanced Audio Codec
    Format profile : LC
    Codec ID : 40
    Duration : 2h 10mn
    Bit rate mode : Variable
    Bit rate : 136 Kbps
    Maximum bit rate : 172 Kbps
    Channel(s) : 2 channels
    Channel positions : Front: L R
    Sampling rate : 48.0 KHz
    Compression mode : Lossy
    Stream size : 128 MiB (9%)
    Title : Dub
    Language : Russian
    Encoded date : UTC 2014-03-20 08:11:21
    Tagged date : UTC 2014-03-20 08:14:56

    Menu
    ID : 3
    Codec ID : text
    Duration : 2h 10mn
    Encoded date : UTC 2014-03-20 08:15:59
    Tagged date : UTC 2014-03-20 08:15:59
    Bit rate mode : CBR

    iTunes tags

    Sort Name: L;?cume des jours
    XID: Apple:vendor_id:2013-606669
    Content ID: 606669
    Copyright: Brio Films, StudioCanal, Scope Pictures
    ScreenWriters: Мишель Гондри, Люк Босси, Борис Виан
    Producers: Люк Босси, Ксавье Кастано, Женевьева Лемаль
    Director: Мишель Гондри
    Cast: Ромен Дюрис, Одри Тоту, Гад Эльмалех, Омар Си, Айса Майга, Шарлотта Лебон, Саша Бурдо, Филипп Торретон, Венсан Ротье, Лоран Лафитт
    Rating: PG-13
    Long Deion: История любви, разворачивающаяся в фантастическом мире, где влюбленные летают на свидания в розовых тучках и танцуют на потолке, где в коридоре обычной квартиры живет солнце, а мыши-домоправители ведут беседы с кошками, где цветы прорастают внутри людей и тепло человеческого сердца способно уничтожить самое опасное оружие
    Deion: История любви, разворачивающаяся в фантастическом мире, где влюбленные летают на свидания в розовых тучках и танцуют на потолке, где в коридоре обычной квартиры живет солнце, а мыши-домоправители ведут беседы с кошками, где цветы прорастают внутри лю
    Release Date: 2013-04-24T08:00:00Z
    Genre: Drama
    Artist: Michel Gondry
    Name: Пена дней
    x264

    x264 info: frame I:3233 Avg QP:20.94 size: 20561
    x264 info: frame P:185251 Avg QP:23.02 size: 7020
    x264 info: mb I I16..4: 47.8% 0.0% 52.2%
    x264 info: mb P I16..4: 2.2% 0.0% 2.0% P16..4: 55.7% 14.3% 6.7% 1.0% 0.4% skip:17.7%
    x264 info: coded y,uvDC,uvAC intra: 43.9% 50.6% 14.9% inter: 28.3% 23.7% 4.2%
    x264 info: i16 v,h,dc,p: 44% 14% 9% 32%
    x264 info: i4 v,h,dc,ddl,ddr,vr,hd,vl,hu: 28% 14% 17% 6% 8% 9% 6% 7% 4%
    x264 info: i8c dc,h,v,p: 67% 11% 19% 4%
    x264 info: ref P L0: 72.2% 27.8%
    x264 info: kb/s:1392.47




    Залил: gekka
    Размер скачиваемого торрента: 1.40 GB (1505824036 Bytes)

    Пена дней / Lecume des jours (2013) BDRip-AVC | iPhone | D скачать через торрент бесплатно
    загрузка...
    Рейтинг →
     (голосов: 1, оценка 4/5, голосовать можно 1 раз )

    Другие торренты по теме:

  • Пена дней / Lecume des jours (2013) HDTVRip 1080p | Трейлер торрент скачать бесплатно
  • Пена дней / Lcume des jours (2013) НDRip от Scarabey | D | Чистый звук торрент скачать бесплатно
  • Пена дней / Lcume des jours (2013) НDRip от Scarabey | D | Чистый звук торрент скачать бесплатно
  • Пена дней / Lcume des jours (2013) НDRip-AVC от Youtracker | Чистый звук торрент скачать бесплатно
  • Пена дней / Lcume des jours (2013) НDRip-AVC от Youtracker | D | Лицензия торрент скачать бесплатно
  • Пена дней / Lecume des jours (2013) HDRip от Youtracker | Лицензия торрент скачать бесплатно
  • Пена дней / Lcume des jours (2013) BDRip-AVC от HELLYWOOD | D | Лицензия торрент скачать бесплатно
  • Пена дней / Lcume des jours (2013) BDRip-AVC от MediaClub | D скачать бесплатно через торрент


    • Комментарии (0):

      Информация

      Информация

        Посетители, находящиеся в группе Гости, не могут оставлять комментарии в данной новости.

        ↓ Меню



        ↓ Опрос

        А Вы добавили сайт в закладки?
        Да
        Не


        Top 10 за неделю (Фильмы)