.
Авторизация | Регистрация
Хочешь лучшие торренты? Добавь свой email!
Добавить
» » Поцелуй проклятой / Kiss of the Damned (2012) Blu-Ray Remux 1080p от NovaLan скачать через торрент бесплатно




    Поцелуй проклятой / Kiss of the Damned (2012) Blu-Ray Remux 1080p от NovaLan скачать через торрент бесплатно

    Опубликовал: Админ | Дата: 27-02-2015, 11:10 | Просмотров: 263



    Русское название: Поцелуй проклятой
    Русское название в мировом прокате: Kiss of the Damned
    Создали в: 2012
    Категория жанра: Ужасы, драма
    Главный режиссер: Ксан Кассаветис
    Актеры: Жозефин Де Ла Буме, Майло Вентимилья, Роксана Мескида, Майкл Рапапорт, Райли Кио, Чинг Валдес, Анна Муглалис, Хуан Луис Асеведо, Джей Брэннан, Джонатан Кауэтт
    Сюжет фильма:
    Перед нами разворачивается любовная история между красивой вампиршей и смертным мужчиной. Долго сдерживаясь, героиня все же уступает искушению и пьет кровь любимого и не убивает его. Однако вскоре объявляется сестра вампирши, которая пытается положить конец чужеродным отношениям и спасти род вампиров от угрозы раскрытия.


    Снималось в: США, Bersin Pictures, Deerjen Films, Verisimilitude
    Время просмотра: 01:35:29
    Перевод текста: Любительский многоголосый OK!Prod / Любительский одноголосый (den904) / Любительский одноголосый (cmert)

    Кодек для видео: H.264
    Качество фильма: Blu-Ray Remux (1080p)
    Информация о видео: MPEG-4 AVC, 24.8 Кбит/с, 1920x1080, 23.976 Кадр/с
    Информация о звуке: Русский (AC3, 2 ch, 192 Кбит/с), русский (AC3, 6 ch, 640 Кбит/с), английский (DTS-HD, 6 ch, 1561 Кбит/с)
    Субтитры: Русские (А.Кедров), английские, испанские

    Инфо-файл

    Общее
    Уникальный идентификатор : 218973353458796126743845349898948006398 (0xA4BCBBDD42B59F15BAC43C8B67B151FE)
    Полное имя : D:Раздачи_DKiss.of.the.Damned.2012.BluRay.Remux.1080p.NovaLan.mkv
    Формат : Matroska
    Версия формата : Version 4 / Version 2
    Размер файла : 18,6 Гбайт
    Продолжительность : 1 ч. 35 м.
    Режим общего битрейта : Переменный
    Общий поток : 27,9 Мбит/сек
    Название фильма : Kiss.of.the.Damned
    Дата кодирования : UTC 2013-08-12 15:54:44
    Программа кодирования : mkvmerge v6.3.0 (;You can;t stop me!;) built on Jun 28 2013 20:09:41
    Библиотека кодирования : libebml v1.3.0 libmatroska v1.4.0

    Видео
    Идентификатор : 1
    Формат : AVC
    Формат/Информация : Advanced Video Codec
    Профиль формата : High@L4.1
    Параметр CABAC формата : Да
    Параметр ReFrames формата : 4 кадра
    Идентификатор кодека : V_MPEG4/ISO/AVC
    Продолжительность : 1 ч. 35 м.
    Вид битрейта : Переменный
    Битрейт : 24,8 Мбит/сек
    Максимальный битрейт : 35,0 Мбит/сек
    Ширина : 1920 пикселей
    Высота : 1080 пикселей
    Соотношение сторон : 16:9
    Частота кадров : 23,976 кадра/сек
    Стандарт вещания : NTSC
    Цветовое пространство : YUV
    Субдискретизация насыщенности : 4:2:0
    Битовая глубина : 8 бит
    Тип развёртки : Прогрессивная
    Бит/(Пиксели*Кадры) : 0.498
    Размер потока : 16,5 Гбайт (89%)
    Заголовок : Kiss.of.the.Damned
    Default : Да
    Forced : Нет
    Основные цвета : BT.709-5, BT.1361, IEC 61966-2-4, SMPTE RP177
    Характеристики трансфера : BT.709-5, BT.1361
    Коэффициенты матрицы : BT.709-5, BT.1361, IEC 61966-2-4 709, SMPTE RP177

    Аудио #1
    Идентификатор : 2
    Формат : AC-3
    Формат/Информация : Audio Coding 3
    Расширение режима : CM (complete main)
    Параметр Endianness формата : Big
    Идентификатор кодека : A_AC3
    Продолжительность : 1 ч. 35 м.
    Вид битрейта : Постоянный
    Битрейт : 192 Кбит/сек
    Каналы : 2 канала
    Расположение каналов : Front: L R
    Частота : 48,0 КГц
    Битовая глубина : 16 бит
    Метод сжатия : С потерями
    Размер потока : 131 Мбайт (1%)
    Язык : Russian
    Default : Да
    Forced : Нет

    Аудио #2
    Идентификатор : 3
    Формат : AC-3
    Формат/Информация : Audio Coding 3
    Расширение режима : CM (complete main)
    Параметр Endianness формата : Big
    Идентификатор кодека : A_AC3
    Продолжительность : 1 ч. 35 м.
    Вид битрейта : Постоянный
    Битрейт : 640 Кбит/сек
    Каналы : 6 каналов
    Расположение каналов : Front: L C R, Side: L R, LFE
    Частота : 48,0 КГц
    Битовая глубина : 16 бит
    Метод сжатия : С потерями
    Размер потока : 437 Мбайт (2%)
    Язык : Russian
    Default : Нет
    Forced : Нет

    Аудио #3
    Идентификатор : 4
    Формат : AC-3
    Формат/Информация : Audio Coding 3
    Расширение режима : CM (complete main)
    Параметр Endianness формата : Big
    Идентификатор кодека : A_AC3
    Продолжительность : 1 ч. 35 м.
    Вид битрейта : Постоянный
    Битрейт : 192 Кбит/сек
    Каналы : 2 канала
    Расположение каналов : Front: L R
    Частота : 48,0 КГц
    Битовая глубина : 16 бит
    Метод сжатия : С потерями
    Размер потока : 131 Мбайт (1%)
    Язык : Russian
    Default : Нет
    Forced : Нет

    Аудио #4
    Идентификатор : 5
    Формат : DTS
    Формат/Информация : Digital Theater Systems
    Профиль формата : MA / Core
    Идентификатор кодека : A_DTS
    Продолжительность : 1 ч. 35 м.
    Вид битрейта : Переменный
    Битрейт : 1561 Кбит/сек / 1510 Кбит/сек
    Каналы : 6 каналов
    Расположение каналов : Front: L C R, Side: L R, LFE
    Частота : 48,0 КГц
    Битовая глубина : 16 бит
    Метод сжатия : Без потерь / Lossy
    Язык : English
    Default : Нет
    Forced : Нет

    Текст #1
    Идентификатор : 6
    Формат : UTF-8
    Идентификатор кодека : S_TEXT/UTF8
    Идентификатор кодека/Информация : UTF-8 Plain Text
    Язык : Russian
    Default : Да
    Forced : Нет

    Текст #2
    Идентификатор : 7
    Формат : PGS
    Режим смешивания : zlib
    Идентификатор кодека : S_HDMV/PGS
    Идентификатор кодека/Информация : The same subtitle format used on BDs/HD-DVDs
    Язык : English
    Default : Нет
    Forced : Нет

    Текст #3
    Идентификатор : 8
    Формат : PGS
    Режим смешивания : zlib
    Идентификатор кодека : S_HDMV/PGS
    Идентификатор кодека/Информация : The same subtitle format used on BDs/HD-DVDs
    Язык : Spanish
    Default : Нет
    Forced : Нет

    Меню
    00:00:00.000 : en:Meeting
    00:09:59.932 : en:Subconcious Drives
    00:15:13.621 : en:You;re Safe
    00:23:11.390 : en:I;m Happy
    00:34:15.595 : en:Someplace New
    00:42:17.993 : en:A Party
    00:52:34.568 : en:Did You Hear That?
    00:56:21.586 : en:Quite the Affair
    01:08:48.582 : en:Mimi
    01:13:27.361 : en:She;ll Be Delighted
    01:20:23.860 : en:Arrange It
    01:29:30.490 : en:End Credits



    Релиз группа NovaLan
    Автор сборки Sergei7721




    Релиз подготовил:


    Залил: Sergei7721
    Размер скачиваемого торрента: 18.60 GB (19975535185 Bytes)

    Поцелуй проклятой / Kiss of the Damned (2012) Blu-Ray Remux 1080p от NovaLan скачать через торрент бесплатно
    загрузка...
    Рейтинг →
     (голосов: 1, оценка 3/5, голосовать можно 1 раз )

    Другие торренты по теме:

  • Поцелуй проклятой / Kiss of the damned (2012) WEB-DL | L1
  • Поцелуй проклятой / Kiss of the Damned (2012) BDRip 1080p от NovaLan
  • Поцелуй проклятой / Kiss of the Damned (2012) DVD9 от NovaLan
  • Поцелуй проклятой / Kiss of the damned (2012) BDRip от Rulya74 | L


    • Комментарии (0):

      Информация

      Информация

        Посетители, находящиеся в группе Гости, не могут оставлять комментарии в данной новости.

        ↓ Меню



        ↓ Опрос

        А Вы добавили сайт в закладки?
        Да
        Не


        Top 10 за месяц (Фильмы)