.
Авторизация | Регистрация
» » Эммануэль и правда о рыбах / The Truth About Emanuel (2013) BDRemux 1080p от NovaLan скачать через торрент бесплатно




    Эммануэль и правда о рыбах / The Truth About Emanuel (2013) BDRemux 1080p от NovaLan скачать через торрент бесплатно

    Опубликовал: Админ | Дата: 27-02-2015, 11:10 | Просмотров: 201



    Русское название: Эммануэль и правда о рыбах
    Русское название в мировом прокате: The Truth About Emanuel
    Создали в: 2013
    Категория жанра: Триллер, драма
    Главный режиссер: Франческа Грегорини
    Актеры: Кая Скоделарио, Джессика Бил, Джимми Симпсон, Фрэнсис О’Коннор, Альфред Молина, Анайрин Барнард, Сэм Джагер, Энн Рэмси, Спенсер Гаррет, Габриэлла Диас
    Сюжет фильма:
    Эмануэль - язвительная и в то же время чувствительная девушка-подросток, живущая со своим отцом и мачехой. Приближается её очередной день рождения, однако Эмануэль безразличен этот праздник с тех пор, как её мать, подарив ей жизнь, умерла при родах. В это же время по соседству с ней поселяется загадочная Линда, обладающая поразительным сходством с покойной матерью Эмануэль. Заинтригованная данным фактом, Эмануэль начинает работать няней для новорожденной дочери Линды и постепенно втягивается в хрупкий, вымышленный мир своей соседки, в котором самой Эмануэль отведена роль привратника.


    Снималось в: США, Mott Street Pictures, MRB Productions Inc., Pisces Rising Productions, Producciones A Ciegas , Rooks Nest Entertainment, Votiv Films
    Время просмотра: 01:35:43
    Перевод текста: Любительский одноголосый (Andi)

    Кодек для видео: H.264
    Качество фильма: Blu-Ray Remux 1080p
    Информация о видео: MPEG-4 AVC, 23.5 Мбит/с, 1920x1080, 23.976 кадр/с
    Информация о звуке: Русский (AC3, 2 ch, 192 Кбит/с), английский (DTS-HD MA, 6 ch, 1561 Кбит/с), (AC3, 2 ch, 224 Кбит/с)
    Субтитры: Английские

    Инфо-файл

    Полное имя : E:Раздачи_EThe.Truth.About.Emanuel.2013.BDRemux.1080p.NovaLan.mkv
    Формат : Matroska
    Версия формата : Version 4 / Version 2
    Размер файла : 17,4 Гбайт
    Продолжительность : 1 ч. 35 м.
    Режим общего битрейта : Переменный
    Общий поток : 26,0 Мбит/сек
    Название фильма : The Truth About Emanuel 2013 - NovaLan
    Дата кодирования : UTC 2014-03-20 02:17:35
    Программа кодирования : mkvmerge v6.8.0 (;Theme for Great Cities;) 64bit built on Mar 2 2014 21:34:26
    Библиотека кодирования : libebml v1.3.0 libmatroska v1.4.1

    Видео
    Идентификатор : 1
    Формат : AVC
    Формат/Информация : Advanced Video Codec
    Профиль формата : High@L4.1
    Параметр CABAC формата : Да
    Параметр ReFrames формата : 4 кадра
    Идентификатор кодека : V_MPEG4/ISO/AVC
    Продолжительность : 1 ч. 35 м.
    Вид битрейта : Переменный
    Битрейт : 23,5 Мбит/сек
    Максимальный битрейт : 30,0 Мбит/сек
    Ширина : 1920 пикселей
    Высота : 1080 пикселей
    Соотношение сторон : 16:9
    Частота кадров : 23,976 кадра/сек
    Стандарт вещания : NTSC
    Цветовое пространство : YUV
    Субдискретизация насыщенности : 4:2:0
    Битовая глубина : 8 бит
    Тип развёртки : Прогрессивная
    Бит/(Пиксели*Кадры) : 0.473
    Размер потока : 15,7 Гбайт (90%)
    Заголовок : The Truth About Emanuel 2013 - NovaLan
    Default : Да
    Forced : Нет
    Основные цвета : BT.709-5, BT.1361, IEC 61966-2-4, SMPTE RP177
    Характеристики трансфера : BT.709-5, BT.1361
    Коэффициенты матрицы : BT.709-5, BT.1361, IEC 61966-2-4 709, SMPTE RP177

    Аудио #1
    Идентификатор : 2
    Формат : AC-3
    Формат/Информация : Audio Coding 3
    Расширение режима : CM (complete main)
    Параметр Endianness формата : Big
    Идентификатор кодека : A_AC3
    Продолжительность : 1 ч. 35 м.
    Вид битрейта : Постоянный
    Битрейт : 192 Кбит/сек
    Каналы : 2 канала
    Расположение каналов : Front: L R
    Частота : 48,0 КГц
    Битовая глубина : 16 бит
    Метод сжатия : С потерями
    Размер потока : 131 Мбайт (1%)
    Язык : Russian
    Default : Да
    Forced : Нет

    Аудио #2
    Идентификатор : 3
    Формат : DTS
    Формат/Информация : Digital Theater Systems
    Профиль формата : MA / Core
    Идентификатор кодека : A_DTS
    Продолжительность : 1 ч. 35 м.
    Вид битрейта : Переменный
    Битрейт : 1561 Кбит/сек / 1510 Кбит/сек
    Каналы : 6 каналов
    Расположение каналов : Front: L C R, Side: L R, LFE
    Частота : 48,0 КГц
    Битовая глубина : 16 бит
    Метод сжатия : Без потерь / Lossy
    Язык : English
    Default : Нет
    Forced : Нет

    Аудио #3
    Идентификатор : 4
    Формат : AC-3
    Формат/Информация : Audio Coding 3
    Расширение режима : CM (complete main)
    Параметр Endianness формата : Big
    Идентификатор кодека : A_AC3
    Продолжительность : 1 ч. 35 м.
    Вид битрейта : Постоянный
    Битрейт : 224 Кбит/сек
    Каналы : 2 канала
    Расположение каналов : Front: L R
    Частота : 48,0 КГц
    Битовая глубина : 16 бит
    Метод сжатия : С потерями
    Размер потока : 153 Мбайт (1%)
    Язык : English
    Default : Нет
    Forced : Нет

    Текст
    Идентификатор : 5
    Формат : UTF-8
    Идентификатор кодека : S_TEXT/UTF8
    Идентификатор кодека/Информация : UTF-8 Plain Text
    Язык : English
    Default : Нет
    Forced : Нет

    Меню
    00:00:00.000 : en:Chapter 1
    00:06:47.490 : en:Chapter 2
    00:13:30.059 : en:Chapter 3
    00:18:35.447 : en:Chapter 4
    00:26:22.539 : en:Chapter 5
    00:37:39.590 : en:Chapter 6
    00:42:54.071 : en:Chapter 7
    00:49:51.071 : en:Chapter 8
    01:02:25.616 : en:Chapter 9
    01:12:14.038 : en:Chapter 10
    01:18:48.223 : en:Chapter 11
    01:28:42.191 : en:Chapter 12



    Релиз группа NovaLan
    Автор сборки Sergei7721






    Релиз подготовил:


    Залил: Sergei7721
    Размер скачиваемого торрента: 17.41 GB (18692235803 Bytes)

    Эммануэль и правда о рыбах / The Truth About Emanuel (2013) BDRemux 1080p от NovaLan скачать через торрент бесплатно
    загрузка...
    Рейтинг →
     (голосов: 1, оценка 3/5, голосовать можно 1 раз )

    Другие торренты по теме:



      Комментарии (0):

      Информация

      Информация

        Посетители, находящиеся в группе Гости, не могут оставлять комментарии в данной новости.

        ↓ Меню



        ↓ Опрос

        А Вы добавили сайт в закладки?
        Да
        Не


        Top 10 за неделю (Фильмы)