.
Авторизация | Регистрация
Хочешь лучшие торренты? Добавь свой email!
Добавить
» » Врата / The Gates (2010) WEB-DLRip от Generalfilm | КПК скачать через торрент бесплатно




    Врата / The Gates (2010) WEB-DLRip от Generalfilm | КПК скачать через торрент бесплатно

    Опубликовал: Админ | Дата: 27-02-2015, 11:10 | Просмотров: 237



    Детально о кино
    Русское название: Врата
    Русское название в мировом прокате: The Gates
    Создали в: 2010
    Категория жанра: Триллер, драма, криминал, детектив, вампиры
    Главный режиссер: Дэвид Баррет, Фред Гербер, Терри МакДонаф
    Актеры: Рона Митра, Фрэнк Грилло, Марисоль Николс, Люк Мэбли, Трэвис Колдуэлл, Скайлер Сэмюэлс, Чандра Уэст, Колтон Хэйнс, Янина Гаванкар, Джастин Майлз, Виктория Габриэлль Платт, Джорджия Коул, МакКали Миллер, Девин А. Тайлер, Джеймс Престон, Рэйчел ДиПилло, Бретт Каллен, Линден Эшби, Пол Блекторн, Роджер Р. Кросс, Шеннон Лусио, Андреа Пауэлл, Глория Вотсис, Кайл Сикор, Мэтт Корнвэлл, Барбара Элин Вудс, Луис Хертэм, Девон Гаммерсолл, Лори Херинг, Дженнифер Уоррен, Джонни Месснер, Билли Слотер, Джон Родригез, Рэнди Остин, Кэрри Шарбо, Лэни Тейлор, Грейси Уиттон

    Сюжет фильма:
    Детектив Ник Монахан вместе с женой Сарой и двумя детьми Чарли и Даной переезжает из суетливого Чикаго в тихий, охраняемый четырехметровыми воротами, поселок, для того чтобы занять место начальника местной полиции. Однако вскоре Монаханам становится ясно, что за живописной оболочкой, состоящей из хорошеньких домиков и ухоженных газонов, жители пригорода скрывают какие-то темные тайны…



    Список серий:
    01. Пилотная серия (Pilot).
    02. Что скрывает ложь (What Lies Beneath).
    03. Нарушение (Breach).
    04. Монстр рядом (The Monster Within).
    05. Последствия (Repercussions).
    06. Юрисдикция (Jurisdiction).
    07. Копаясь в грязи (Digging the Dirt).
    08. Человек человеку волк(Dog Eat Dog).
    09. Личностный кризис (Identity Crisis).
    10. Потерянная девочка (Little Girl Lost).
    11. Всплывшее (Surfacing).
    12. Восход дурной луны (Bad Moon Rising).
    13. День отъезда (Moving Day).

    Снималось в: США
    Киностудия: Fox Television Studios, Little Engine Entertainment, Summerland Entertainment
    Время просмотра: 13 x ~ 00:43:00
    Перевод текста: Профессиональный (многоголосый) Первый канал

    Файл
    Тип видео: MP4
    Качество фильма: HDRip | КПК
    Информация о видео: MPEG-4 AVC (x264), 640x360, ~500 kbps, 23.976 fps
    Информация о звуке: AAC LC, 44.1 KHz, 2 ch, 128 Kbps
    Субтитры: Нет

    Семпл

    Скриншоты для ознакомления

    MI
    General
    Complete name : E:KinoVrata.S01.2010.AVC.WEB-DLRip.KPK.GeneralfilmVrata.s01e03.2010.AVC.WEB-DLRip.KPK.Generalfilm.mp4
    Format : MPEG-4
    Format profile : Base Media
    Codec ID : isom
    File size : 195 MiB
    Duration : 43mn 19s
    Overall bit rate mode : Variable
    Overall bit rate : 630 Kbps
    Encoded date : UTC 2014-02-18 15:37:10
    Tagged date : UTC 2014-02-18 15:37:10

    Video
    ID : 1
    Format : AVC
    Format/Info : Advanced Video Codec
    Format profile : Baseline@L4.1
    Format settings, CABAC : No
    Format settings, ReFrames : 6 frames
    Codec ID : avc1
    Codec ID/Info : Advanced Video Coding
    Duration : 43mn 19s
    Bit rate : 500 Kbps
    Maximum bit rate : 3 033 Kbps
    Width : 640 pixels
    Height : 360 pixels
    Display aspect ratio : 16:9
    Frame rate mode : Constant
    Frame rate : 23.976 fps
    Color space : YUV
    Chroma subsampling : 4:2:0
    Bit depth : 8 bits
    Scan type : Progressive
    Bits/(Pixel*Frame) : 0.091
    Stream size : 155 MiB (79%)
    Writing library : x264 core 119 r2106 07efeb4
    Encoding settings : cabac=0 / ref=6 / deblock=1:-1:-1 / analyse=0x1:0x111 / me=umh / subme=7 / psy=1 / psy_rd=1.00:0.00 / mixed_ref=0 / me_range=16 / chroma_me=1 / trellis=1 / 8x8dct=0 / cqm=0 / deadzone=21,11 / fast_pskip=0 / chroma_qp_offset=-2 / threads=3 / sliced_threads=0 / nr=0 / decimate=1 / interlaced=0 / bluray_compat=0 / constrained_intra=0 / bframes=0 / weightp=0 / keyint=250 / keyint_min=23 / scenecut=40 / intra_refresh=0 / rc_lookahead=60 / rc=2pass / mbtree=1 / bitrate=500 / ratetol=1.0 / qcomp=0.60 / qpmin=0 / qpmax=69 / qpstep=4 / cplxblur=20.0 / qblur=0.5 / ip_ratio=1.40 / aq=1:1.00
    Encoded date : UTC 2014-02-18 15:37:10
    Tagged date : UTC 2014-02-18 15:37:28

    Audio
    ID : 2
    Format : AAC
    Format/Info : Advanced Audio Codec
    Format profile : LC
    Codec ID : 40
    Duration : 43mn 19s
    Bit rate mode : Variable
    Bit rate : 128 Kbps
    Maximum bit rate : 159 Kbps
    Channel count : 2 channels
    Channel positions : Front: L R
    Sampling rate : 48.0 KHz
    Compression mode : Lossy
    Stream size : 39.6 MiB (20%)
    Encoded date : UTC 2014-02-18 15:37:24
    Tagged date : UTC 2014-02-18 15:37:28

    Релиз подготовил:
    Залил: toys_watch
    Размер скачиваемого торрента: 2.46 GB (2638115862 Bytes)

    Врата / The Gates (2010) WEB-DLRip от Generalfilm | КПК скачать через торрент бесплатно
    загрузка...
    Рейтинг →
     (голосов: 1, оценка 5/5, голосовать можно 1 раз )

    Другие торренты по теме:



      Комментарии (0):

      Информация

      Информация

        Посетители, находящиеся в группе Гости, не могут оставлять комментарии в данной новости.

        ↓ Меню



        ↓ Опрос

        А Вы добавили сайт в закладки?
        Да
        Не


        Top 10 за месяц (Фильмы)