.
Авторизация | Регистрация
Хочешь лучшие торренты? Добавь свой email!
Добавить
» » 47 ронинов / 47 Ronin (2013) HDRip-AVC | Чистый звук торрент скачать бесплатно




    47 ронинов / 47 Ronin (2013) HDRip-AVC | Чистый звук торрент скачать бесплатно

    Опубликовал: Админ | Дата: 27-02-2015, 11:10 | Просмотров: 265


    Название: 47 ронинов
    Оригинальное название: 47 Ronin
    Год выпуска: 2013
    Производство: США | H2F Entertainment, Mid Atlantic Films, MPC
    Жанр: Фэнтези, Боевик, Приключения
    Продолжительность: 01:58:43
    Перевод: Дублированный Чистый звук
    Субтитры: Английский

    Главный режиссер: Карл Ринш
    Продюсер: Памела Эбди, Эрик МакЛеод, Крис Фентон
    Актеры: Киану Ривз, Хироюки Санада, Ко Шибасаки, Таданобу Асано, Мин Танака, Джин Аканиши, Масаёси Ханеда, Хироси Согабэ, Такато Йонемото, Хироси Ямада, Шу Накаджима, Кэри-Хироюки Тагава ...
    Роли дублировали: Анатолий Белый, Илья Исаев, Элиза Мартиросова, Сергей Смирнов, Владимир Левашёв, Константин Карасик, Иван Жарков ...

    Сюжет фильма:
    Таинственный странник, преданный всеми, проданный в рабство, избранный судьбой вершить месть, станет одним из 47 воинов, бросивших вызов смерти. Явившись из другого мира, он восстанет против темных сил, чтобы защитить свою запретную любовь.



    Качество: HDRip-AVC
    Видео: H.264, 1024 x 426 (2.427) at 23.976 fps : 0.190 Bits/Pixel, ~ 1986 Кбит
    Аудио #1: AC3 256 Кбит/сек (2ch), 48,0 КГц, 16 бит Русский, Дубляж
    Аудио #2: AC3 384 Кбит/сек (6ch), 48,0 КГц, 16 бит Английский
    Дополнительно: Сохранены оригинальные чаптеры как на Blu-ray
    Сэмпл

    Релиз:

    MediaInfo:
    Формат : Matroska
    Версия формата : Version 2
    Размер файла : 2,18 Гбайт
    Продолжительность : 1 ч. 58 м.
    Общий поток : 2627 Кбит/сек
    Название фильма : 47.Ronin.2013.D.HDRip.x264.2.18GB.NNM-CLUB.GIU
    Дата кодирования : UTC 2014-03-20 21:02:01
    Программа кодирования : mkvmerge v2.9.9 (;Tutu;) built on Nov 25 2009 21:13:32
    Библиотека кодирования : libebml v0.7.9 libmatroska v0.8.1

    Видео
    Идентификатор : 1
    Формат : AVC
    Формат/Информация : Advanced Video Codec
    Профиль формата : High@L4.1
    Параметр CABAC формата : Да
    Параметр ReFrames формата : 10 кадров
    Идентификатор кодека : V_MPEG4/ISO/AVC
    Продолжительность : 1 ч. 58 м.
    Битрейт : 1986 Кбит/сек
    Ширина : 1024 пикселя
    Высота : 426 пикселей
    Соотношение сторон : 2,40:1
    Режим частоты кадров : Постоянный
    Частота кадров : 23,976 кадра/сек
    Цветовое пространство : YUV
    Субдискретизация насыщенности : 4:2:0
    Битовая глубина : 8 бит
    Тип развёртки : Прогрессивная
    Бит/(Пиксели*Кадры) : 0.190
    Размер потока : 1,60 Гбайт (74%)
    Заголовок : -=Release for NNM-CLUB.RU=-
    Библиотека кодирования : x264 core 119 r2106 07efeb4
    Настройки программы : cabac=1 / ref=10 / deblock=1:-3:-3 / analyse=0x3:0x113 / me=umh / subme=10 / psy=1 / psy_rd=1.00:0.00 / mixed_ref=0 / me_range=32 / chroma_me=1 / trellis=2 / 8x8dct=1 / cqm=0 / deadzone=21,11 / fast_pskip=1 / chroma_qp_offset=-2 / threads=12 / sliced_threads=0 / nr=0 / decimate=0 / interlaced=0 / bluray_compat=0 / constrained_intra=0 / bframes=8 / b_pyramid=2 / b_adapt=2 / b_bias=0 / direct=1 / weightb=1 / open_gop=0 / weightp=2 / keyint=250 / keyint_min=23 / scenecut=40 / intra_refresh=0 / rc_lookahead=40 / rc=2pass / mbtree=1 / bitrate=1986 / ratetol=1.0 / qcomp=0.70 / qpmin=0 / qpmax=69 / qpstep=4 / cplxblur=20.0 / qblur=0.5 / ip_ratio=1.40 / aq=1:0.60
    Язык : English
    Default : Нет
    Forced : Нет

    Аудио #1
    Идентификатор : 2
    Формат : AC-3
    Формат/Информация : Audio Coding 3
    Расширение режима : CM (complete main)
    Параметр Endianness формата : Big
    Идентификатор кодека : A_AC3
    Продолжительность : 1 ч. 58 м.
    Вид битрейта : Постоянный
    Битрейт : 256 Кбит/сек
    Каналы : 2 канала
    Расположение каналов : Front: L R
    Частота : 48,0 КГц
    Битовая глубина : 16 бит
    Метод сжатия : С потерями
    Размер потока : 217 Мбайт (10%)
    Заголовок : AC3.256.Kbps (2ch) Russian (Дубляж)
    Язык : Russian
    Default : Нет
    Forced : Нет

    Аудио #2
    Идентификатор : 3
    Формат : AC-3
    Формат/Информация : Audio Coding 3
    Расширение режима : CM (complete main)
    Параметр Endianness формата : Big
    Идентификатор кодека : A_AC3
    Продолжительность : 1 ч. 58 м.
    Вид битрейта : Постоянный
    Битрейт : 384 Кбит/сек
    Каналы : 6 каналов
    Расположение каналов : Front: L C R, Side: L R, LFE
    Частота : 48,0 КГц
    Битовая глубина : 16 бит
    Метод сжатия : С потерями
    Размер потока : 326 Мбайт (15%)
    Заголовок : AC3.384.Kbps (6ch) English
    Язык : English
    Default : Нет
    Forced : Нет

    Текст #1
    Идентификатор : 4
    Формат : UTF-8
    Идентификатор кодека : S_TEXT/UTF8
    Идентификатор кодека/Информация : UTF-8 Plain Text
    Заголовок : English (Full)
    Язык : English
    Default : Нет
    Forced : Нет

    Текст #2
    Идентификатор : 5
    Формат : UTF-8
    Идентификатор кодека : S_TEXT/UTF8
    Идентификатор кодека/Информация : UTF-8 Plain Text
    Заголовок : English (SDH)
    Язык : English
    Default : Нет
    Forced : Нет

    Меню
    00:00:00.000 : en:00:00:00.000
    00:04:27.559 : en:00:04:27.559
    00:11:12.088 : en:00:11:12.088
    00:16:27.820 : en:00:16:27.820
    00:20:11.836 : en:00:20:11.836
    00:26:52.319 : en:00:26:52.319
    00:31:02.944 : en:00:31:02.944
    00:36:10.627 : en:00:36:10.627
    00:43:36.614 : en:00:43:36.614
    00:50:14.511 : en:00:50:14.511
    00:54:59.421 : en:00:54:59.421
    00:59:54.049 : en:00:59:54.049
    01:09:57.735 : en:01:09:57.735
    01:13:59.018 : en:01:13:59.018
    01:19:12.247 : en:01:19:12.247
    01:24:17.386 : en:01:24:17.386
    01:33:00.825 : en:01:33:00.825
    01:38:55.555 : en:01:38:55.555
    01:44:41.609 : en:01:44:41.609
    01:48:38.303 : en:01:48:38.303
    Скриншоты для ознакомления

    Размер скачиваемого торрента: 2.18 GB (2339338690 Bytes)

    47 ронинов / 47 Ronin (2013) HDRip-AVC | Чистый звук торрент скачать бесплатно
    загрузка...
    Рейтинг →
     (голосов: 1, оценка 5/5, голосовать можно 1 раз )

    Другие торренты по теме:

  • 47 ронинов / 47 Ronin (2013) HD 720p | L1 | Трейлер
  • OST - 47 Ронинов / 47 Ronin (2013) MP3 скачать через торрент бесплатно
  • 47 ронинов / 47 Ronin (2013) CAMRip
  • 47 ронинов / 47 Ronin (2013) TS скачать через торрент бесплатно
  • 47 ронинов / 47 Ronin (2013) TS *PROPER* скачать через торрент бесплатно
  • 47 ронинов / 47 Ronin (2013) WEBRip | Звук с TS скачать через торрент бесплатно
  • 47 ронинов / 47 Ronin (2013) WEBRip-AVC | Звук с TS *PROPER* скачать через торрент бесплатно
  • 47 ронинов / 47 Ronin (2013) DVDScr | Звук с TS


    • Комментарии (0):

      Информация

      Информация

        Посетители, находящиеся в группе Гости, не могут оставлять комментарии в данной новости.

        ↓ Меню



        ↓ Опрос

        А Вы добавили сайт в закладки?
        Да
        Не


        Top 10 за месяц (Фильмы)