.
Авторизация | Регистрация
» » Зимняя сказка / Conte dhiver (1992) BDRip by msltel | P скачать через торрент бесплатно




    Зимняя сказка / Conte dhiver (1992) BDRip by msltel | P скачать через торрент бесплатно

    Опубликовал: Админ | Дата: 27-02-2015, 11:10 | Просмотров: 251



    Русское название: Зимняя сказка
    Русское название в мировом прокате: Conte d;hiver
    Создали в: 1992
    Категория жанра: Драма
    Снималось в: Франция, Canal fr, Compagnie Eric Rohmer (CER), Investimage, Les Films du Losange, Sofiarp
    Главный режиссер: Эрик Ромер
    Актеры: Шарлотт Вери, Фредерик ван ден Дрише, Майкл Волетти, Херв Фюрик, Ава Лораски, Кристиана Дебуа, Розетт, Жан-Люк Револь, Айде Кайо, Жан-Клод Бьетт

    Сюжет фильма: Безудержный отпускной роман Фелиции и Шарля, проведённый ими в Бретани, завершился случайным расставанием с потерей адресов друг друга. Прошли годы. Теперь Фелиция мать четырёхлетней дочери Элизы, чьи отцом является Шарль. У неё два любовника: библиотекарь Лоик и её начальник — интеллектуал Максанс. Фелиция разрывается между ними, догадываясь, что на самом деле не любит никого из них. Более того, она до сих пор следит за прохожими в надежде увидеть мужчину, с которым пять лет назад испытала настоящую любовь. Авторское кино Эрика Ромера. Второй фильм из цикла Сказки о временах года.

    Качество фильма: BDRip
    Информация о видео: XviD, 1999 Kбит/с, 704x416
    Информация о звуке: Русский (AC3, 2 ch, 224 Кбит/с), французский (AC3, 2 ch, 192 Кбит/с)
    Размер скачиваемого торрента: 1.93 ГБ
    Время просмотра: 01:53:57
    Перевод текста: Профессиональный многоголосый (R5)
    Субтитры: Русские, английские

    Исходник: posodobl (Кинозал)

    Сравнение с исходником



    Награды
    Берлинский кинофестиваль, 1992 год
    Победитель (2):
    Приз ФИПРЕССИ (конкурсная программа)
    Приз экуменического (христианского) жюри - особое упоминание (конкурсная программа)

    Номинации (1):
    Золотой Медведь
    MediaInfo
    Общее
    Полное имя : D:VideoZimnjaja skazka.1992.XviD.BDRipZimnjaja skazka.1992.eng.srt
    Формат : SubRip
    Размер файла : 105 Кбайт

    Текст
    Формат : SubRip
    Метод сжатия : Без потерь

    Общее
    Полное имя : D:VideoZimnjaja skazka.1992.XviD.BDRipZimnjaja skazka.1992.Original.fre.ac3
    Формат : AC-3
    Формат/Информация : Audio Coding 3
    Размер файла : 156 Мбайт
    Продолжительность : 1 ч. 53 м.
    Режим общего битрейта : Постоянный
    Общий поток : 192 Кбит/сек

    Аудио
    Формат : AC-3
    Формат/Информация : Audio Coding 3
    Расширение режима : CM (complete main)
    Параметр Endianness формата : Big
    Продолжительность : 1 ч. 53 м.
    Вид битрейта : Постоянный
    Битрейт : 192 Кбит/сек
    Каналы : 2 канала
    Расположение каналов : Front: L R
    Частота : 48,0 КГц
    Битовая глубина : 16 бит
    Метод сжатия : С потерями
    Размер потока : 156 Мбайт (100%)

    Общее
    Полное имя : D:VideoZimnjaja skazka.1992.XviD.BDRipZimnjaja skazka.1992.rus.srt
    Формат : SubRip
    Размер файла : 167 Кбайт

    Текст
    Формат : SubRip
    Метод сжатия : Без потерь

    Общее
    Полное имя : D:VideoZimnjaja skazka.1992.XviD.BDRipZimnjaja skazka.1992.XviD.BDRip.avi
    Формат : AVI
    Формат/Информация : Audio Video Interleave
    Размер файла : 1,78 Гбайт
    Продолжительность : 1 ч. 53 м.
    Общий поток : 2232 Кбит/сек
    Программа кодирования : VirtualDubMod 1.5.10.2 (build 2540/release)
    Библиотека кодирования : VirtualDubMod build 2540/release

    Видео
    Идентификатор : 0
    Формат : MPEG-4 Visual
    Профиль формата : Advanced Simple@L5
    Параметр BVOP формата : 1
    Параметр QPel формата : Нет
    Параметр GMC формата : Без точки перехода
    Параметр матрицы формата : Default (H.263)
    Режим смешивания : Сжатый битовый поток
    Идентификатор кодека : XVID
    Идентификатор кодека/Подсказка : XviD
    Продолжительность : 1 ч. 53 м.
    Битрейт : 1999 Кбит/сек
    Ширина : 704 пикселя
    Высота : 416 пикселей
    Соотношение сторон : 1,692
    Частота кадров : 24,000 кадра/сек
    Цветовое пространство : YUV
    Субдискретизация насыщенности : 4:2:0
    Битовая глубина : 8 бит
    Тип развёртки : Прогрессивная
    Метод сжатия : С потерями
    Бит/(Пиксели*Кадры) : 0.284
    Размер потока : 1,59 Гбайт (90%)
    Библиотека кодирования : XviD 1.2.1 (UTC 2008-12-04)

    Аудио
    Идентификатор : 1
    Формат : AC-3
    Формат/Информация : Audio Coding 3
    Расширение режима : CM (complete main)
    Параметр Endianness формата : Big
    Идентификатор кодека : 2000
    Продолжительность : 1 ч. 53 м.
    Вид битрейта : Постоянный
    Битрейт : 224 Кбит/сек
    Каналы : 2 канала
    Расположение каналов : Front: L R
    Частота : 48,0 КГц
    Битовая глубина : 16 бит
    Метод сжатия : С потерями
    Размер потока : 183 Мбайт (10%)
    Выравнивание : Разделение по промежуткам
    Продолжительность промежутка : 42 мс. (1,00 видеокадр)
    Время предзагрузки промежутка : 500 мс.
    Скриншоты для ознакомления



    Залил: msltel
    Размер скачиваемого торрента: 1.93 GB (2072251099 Bytes)

    Зимняя сказка / Conte dhiver (1992) BDRip by msltel | P скачать через торрент бесплатно
    загрузка...
    Рейтинг →
     (голосов: 1, оценка 5/5, голосовать можно 1 раз )

    Другие торренты по теме:

  • VA - Зимняя Сказка (2012) MP3 от Kulemina - Generalfilm торрент скачать бесплатно
  • Сборник - Зимняя сказка (2013) MP3 торрент скачать бесплатно
  • Зимняя сказка / Conte dhiver (1992) BDRip 720p by msltel | P скачать через торрент бесплатно
  • Зимняя сказка / Conte dhiver (1992) BDRip 1080p by msltel | P скачать через торрент бесплатно


    • Комментарии (0):

      Информация

      Информация

        Посетители, находящиеся в группе Гости, не могут оставлять комментарии в данной новости.

        ↓ Меню



        ↓ Опрос

        А Вы добавили сайт в закладки?
        Да
        Не


        Top 10 за неделю (Фильмы)