.
Авторизация | Регистрация
» » Короли танцпола / Battle of the Year (2013) BDRip 720p | D скачать через торрент бесплатно




    Короли танцпола / Battle of the Year (2013) BDRip 720p | D скачать через торрент бесплатно

    Опубликовал: Админ | Дата: 27-02-2015, 11:10 | Просмотров: 271

    Детально о кино
    Русское название: Короли танцпола / Battle of the Year
    Создали в: 2013
    Категория жанра: Музыка, танцы
    Главный режиссер: Бенсон Ли
    Актеры: Джош Холлоуэй, Лаз Алонсо, Джош Пек, Кейти Лотц, Крис Браун, Иван Велез, Джон Крус, Джесси Браун, Дэвид Шрейбман, Саванди Уилсон


    Сюжет:
    Фильм расскажет про подготовку би-боев, которые в конце года сразятся на финальном соревновании. Главные герои после поражения имеют не так много времени, чтобы подготовиться к встрече с лучшими би-боями мира, которые доминируют на играх уже 10 лет…





    Инфо:

    Рип от CtrlHD
    Раздача от Dreamcatcher

    Аудио#1: Russian: AC3, 48 kHz, AC3, 3/2 (L,C,R,l,r) LFE ch, ~640.00 kbps avg - Дублированный (Blu-Ray CEE)
    Аудио#2: Ukrainian: AC3, 48 kHz, AC3, 3/2 (L,C,R,l,r) LFE ch, ~640.00 kbps avg - Дублированный (Blu-Ray CEE)
    Аудио#2: English: AC3, 48 kHz, DTS, 3/2 (L,C,R,l,r) LFE ch, ~1536.00 kbps avg - Оригинал

    Субтитры: Русские (iTunes), Украинские (Форсированные, Blu-ray 3D CEE), Английские (Форсированные, iTunes), английские (iTunes)


    Тех. данные


    Время просмотра: 01:49:40
    Снималось в: США, Screen Gems, ContraFilm production
    Перевод текста: Дублированный

    Файл
    Тип видео: MKV
    Качество фильма: BDRip 720p
    Информация о видео: MPEG-4 AVC, 6320 Кбит/с, 1280x694
    Информация о звуке: Русский, украинский (AC3, 6 ch, 640 Кбит/с), английский (DTS, 6 ch, 1509 Кбит/с)
    MI:

    Общее
    Уникальный идентификатор : 204384454154570722568176513508437984173 (0x99C3039847960329835F3BAC97A103AD)
    Полное имя : D:Battle.of.the.Year.2013.720p.BluRay.Rus.Ukr.Eng.HDCLUB.mkv
    Формат : Matroska
    Версия формата : Version 2
    Размер файла : 6,98 Гбайт
    Продолжительность : 1 ч. 49 м.
    Общий поток : 9112 Кбит/сек
    Название фильма : Battle of the Year (2013) - Release for HDCLUB
    Дата кодирования : UTC 2014-03-21 13:31:36
    Программа кодирования : mkvmerge v3.4.0 (;Rapunzel;) built on May 15 2010 09:38:20
    Библиотека кодирования : libebml v0.8.0 libmatroska v0.9.0

    Видео
    Идентификатор : 1
    Формат : AVC
    Формат/Информация : Advanced Video Codec
    Профиль формата : High@L4.1
    Параметр CABAC формата : Да
    Параметр ReFrames формата : 9 кадров
    Идентификатор кодека : V_MPEG4/ISO/AVC
    Продолжительность : 1 ч. 49 м.
    Битрейт : 6320 Кбит/сек
    Ширина : 1280 пикселей
    Высота : 694 пикселя
    Соотношение сторон : 1,85:1
    Режим частоты кадров : Постоянный
    Частота кадров : 23,976 кадра/сек
    Цветовое пространство : YUV
    Субдискретизация насыщенности : 4:2:0
    Битовая глубина : 8 бит
    Тип развёртки : Прогрессивная
    Бит/(Пиксели*Кадры) : 0.297
    Размер потока : 4,71 Гбайт (67%)
    Заголовок : Battle of the Year (2013) - Release for HDCLUB
    Библиотека кодирования : x264 core 133 r2334 a3ac64b
    Настройки программы : cabac=1 / ref=9 / deblock=1:-3:-3 / analyse=0x3:0x113 / me=tesa / subme=11 / psy=1 / psy_rd=1.10:0.00 / mixed_ref=1 / me_range=32 / chroma_me=1 / trellis=2 / 8x8dct=1 / cqm=0 / deadzone=21,11 / fast_pskip=0 / chroma_qp_offset=-4 / threads=12 / lookahead_threads=2 / sliced_threads=0 / nr=0 / decimate=0 / interlaced=0 / bluray_compat=0 / constrained_intra=0 / bframes=8 / b_pyramid=2 / b_adapt=2 / b_bias=0 / direct=3 / weightb=1 / open_gop=0 / weightp=2 / keyint=250 / keyint_min=23 / scenecut=40 / intra_refresh=0 / rc_lookahead=250 / rc=2pass / mbtree=1 / bitrate=6320 / ratetol=1.0 / qcomp=0.75 / qpmin=0 / qpmax=69 / qpstep=4 / cplxblur=20.0 / qblur=0.5 / ip_ratio=1.20 / aq=1:0.85
    Язык : English
    Default : Да
    Forced : Нет

    Аудио #1
    Идентификатор : 2
    Формат : AC-3
    Формат/Информация : Audio Coding 3
    Расширение режима : CM (complete main)
    Параметр Endianness формата : Big
    Идентификатор кодека : A_AC3
    Продолжительность : 1 ч. 49 м.
    Вид битрейта : Постоянный
    Битрейт : 640 Кбит/сек
    Каналы : 6 каналов
    Расположение каналов : Front: L C R, Side: L R, LFE
    Частота : 48,0 КГц
    Битовая глубина : 16 бит
    Метод сжатия : С потерями
    Размер потока : 502 Мбайт (7%)
    Заголовок : AC3 5.1 @ 640 kbps - DUB, Blu-ray 3D CEE
    Язык : Russian
    Default : Да
    Forced : Нет

    Аудио #2
    Идентификатор : 3
    Формат : AC-3
    Формат/Информация : Audio Coding 3
    Расширение режима : CM (complete main)
    Параметр Endianness формата : Big
    Идентификатор кодека : A_AC3
    Продолжительность : 1 ч. 49 м.
    Вид битрейта : Постоянный
    Битрейт : 640 Кбит/сек
    Каналы : 6 каналов
    Расположение каналов : Front: L C R, Side: L R, LFE
    Частота : 48,0 КГц
    Битовая глубина : 16 бит
    Метод сжатия : С потерями
    Размер потока : 502 Мбайт (7%)
    Заголовок : AC3 5.1 @ 640 kbps - DUB, Blu-ray 3D CEE
    Язык : Ukrainian
    Default : Нет
    Forced : Нет

    Аудио #3
    Идентификатор : 4
    Формат : DTS
    Формат/Информация : Digital Theater Systems
    Режим : 16
    Параметр Endianness формата : Big
    Идентификатор кодека : A_DTS
    Продолжительность : 1 ч. 49 м.
    Вид битрейта : Постоянный
    Битрейт : 1509 Кбит/сек
    Каналы : 6 каналов
    Расположение каналов : Front: L C R, Side: L R, LFE
    Частота : 48,0 КГц
    Битовая глубина : 24 бит
    Метод сжатия : С потерями
    Задержка видео : 11 мс.
    Размер потока : 1,16 Гбайт (17%)
    Заголовок : DTS 5.1 @ 1536 kbps
    Язык : English
    Default : Нет
    Forced : Нет

    Текст #1
    Идентификатор : 5
    Формат : UTF-8
    Идентификатор кодека : S_TEXT/UTF8
    Идентификатор кодека/Информация : UTF-8 Plain Text
    Заголовок : iTunes
    Язык : Russian
    Default : Нет
    Forced : Нет

    Текст #2
    Идентификатор : 6
    Формат : UTF-8
    Идентификатор кодека : S_TEXT/UTF8
    Идентификатор кодека/Информация : UTF-8 Plain Text
    Заголовок : Forced, Blu-ray 3D CEE
    Язык : Ukrainian
    Default : Нет
    Forced : Нет

    Текст #3
    Идентификатор : 7
    Формат : UTF-8
    Идентификатор кодека : S_TEXT/UTF8
    Идентификатор кодека/Информация : UTF-8 Plain Text
    Заголовок : Forced, iTunes
    Язык : English
    Default : Нет
    Forced : Нет

    Текст #4
    Идентификатор : 8
    Формат : UTF-8
    Идентификатор кодека : S_TEXT/UTF8
    Идентификатор кодека/Информация : UTF-8 Plain Text
    Заголовок : iTunes
    Язык : English
    Default : Нет
    Forced : Нет

    Меню
    00:00:00.000 : en:00:00:00.000
    00:06:28.054 : en:00:06:28.054
    00:14:22.987 : en:00:14:22.987
    00:21:33.375 : en:00:21:33.375
    00:27:31.149 : en:00:27:31.149
    00:35:14.904 : en:00:35:14.904
    00:40:18.833 : en:00:40:18.833
    00:47:31.015 : en:00:47:31.015
    00:55:41.088 : en:00:55:41.088
    01:00:00.055 : en:01:00:00.055
    01:04:57.685 : en:01:04:57.685
    01:12:06.072 : en:01:12:06.072
    01:21:08.447 : en:01:21:08.447
    01:29:04.756 : en:01:29:04.756
    01:33:01.367 : en:01:33:01.367
    01:39:48.441 : en:01:39:48.441
    Скриншоты для ознакомления



    Размер скачиваемого торрента: 6.98 GB (7495533594 Bytes)

    Короли танцпола / Battle of the Year (2013) BDRip 720p | D скачать через торрент бесплатно
    загрузка...
    Рейтинг →
     (голосов: 1, оценка 5/5, голосовать можно 1 раз )

    Другие торренты по теме:



      Комментарии (0):

      Информация

      Информация

        Посетители, находящиеся в группе Гости, не могут оставлять комментарии в данной новости.

        ↓ Меню



        ↓ Опрос

        А Вы добавили сайт в закладки?
        Да
        Не


        Top 10 за неделю (Фильмы)